  0
SECTION
  2
HEADER
  9
$ACADVER
  1
AC1021
  9
$ACADMAINTVER
 70
     1
  9
$DWGCODEPAGE
  3
ANSI_936
  9
$LASTSAVEDBY
  1
thinkpad
  9
$INSBASE
 10
0.0
 20
0.0
 30
0.0
  9
$EXTMIN
 10
176.3610687547613
 20
302.6499759392818
 30
0.0
  9
$EXTMAX
 10
878.6164468469481
 20
916.0378344481372
 30
0.0
  9
$LIMMIN
 10
0.0
 20
0.0
  9
$LIMMAX
 10
12.0
 20
9.0
  9
$ORTHOMODE
 70
     1
  9
$REGENMODE
 70
     1
  9
$FILLMODE
 70
     1
  9
$QTEXTMODE
 70
     0
  9
$MIRRTEXT
 70
     1
  9
$LTSCALE
 40
1.0
  9
$ATTMODE
 70
     1
  9
$TEXTSIZE
 40
0.2
  9
$TRACEWID
 40
0.05
  9
$TEXTSTYLE
  7
Standard
  9
$CLAYER
  8
0
  9
$CELTYPE
  6
ByLayer
  9
$CECOLOR
 62
   256
  9
$CELTSCALE
 40
1.0
  9
$DISPSILH
 70
     0
  9
$DIMSCALE
 40
1.0
  9
$DIMASZ
 40
0.18
  9
$DIMEXO
 40
0.0625
  9
$DIMDLI
 40
0.38
  9
$DIMRND
 40
0.0
  9
$DIMDLE
 40
0.0
  9
$DIMEXE
 40
0.18
  9
$DIMTP
 40
0.0
  9
$DIMTM
 40
0.0
  9
$DIMTXT
 40
0.18
  9
$DIMCEN
 40
0.09
  9
$DIMTSZ
 40
0.0
  9
$DIMTOL
 70
     0
  9
$DIMLIM
 70
     0
  9
$DIMTIH
 70
     1
  9
$DIMTOH
 70
     1
  9
$DIMSE1
 70
     0
  9
$DIMSE2
 70
     0
  9
$DIMTAD
 70
     0
  9
$DIMZIN
 70
     0
  9
$DIMBLK
  1

  9
$DIMASO
 70
     1
  9
$DIMSHO
 70
     1
  9
$DIMPOST
  1

  9
$DIMAPOST
  1

  9
$DIMALT
 70
     0
  9
$DIMALTD
 70
     2
  9
$DIMALTF
 40
25.4
  9
$DIMLFAC
 40
1.0
  9
$DIMTOFL
 70
     0
  9
$DIMTVP
 40
0.0
  9
$DIMTIX
 70
     0
  9
$DIMSOXD
 70
     0
  9
$DIMSAH
 70
     0
  9
$DIMBLK1
  1

  9
$DIMBLK2
  1

  9
$DIMSTYLE
  2
Standard
  9
$DIMCLRD
 70
     0
  9
$DIMCLRE
 70
     0
  9
$DIMCLRT
 70
     0
  9
$DIMTFAC
 40
1.0
  9
$DIMGAP
 40
0.09
  9
$DIMJUST
 70
     0
  9
$DIMSD1
 70
     0
  9
$DIMSD2
 70
     0
  9
$DIMTOLJ
 70
     1
  9
$DIMTZIN
 70
     0
  9
$DIMALTZ
 70
     0
  9
$DIMALTTZ
 70
     0
  9
$DIMUPT
 70
     0
  9
$DIMDEC
 70
     4
  9
$DIMTDEC
 70
     4
  9
$DIMALTU
 70
     2
  9
$DIMALTTD
 70
     2
  9
$DIMTXSTY
  7
Standard
  9
$DIMAUNIT
 70
     0
  9
$DIMADEC
 70
     0
  9
$DIMALTRND
 40
0.0
  9
$DIMAZIN
 70
     0
  9
$DIMDSEP
 70
    46
  9
$DIMATFIT
 70
     3
  9
$DIMFRAC
 70
     0
  9
$DIMLDRBLK
  1

  9
$DIMLUNIT
 70
     2
  9
$DIMLWD
 70
    -2
  9
$DIMLWE
 70
    -2
  9
$DIMTMOVE
 70
     0
  9
$DIMFXL
 40
1.0
  9
$DIMFXLON
 70
     0
  9
$DIMJOGANG
 40
0.7853981633974483
  9
$DIMTFILL
 70
     0
  9
$DIMTFILLCLR
 70
     0
  9
$DIMARCSYM
 70
     0
  9
$DIMLTYPE
  6

  9
$DIMLTEX1
  6

  9
$DIMLTEX2
  6

  9
$LUNITS
 70
     2
  9
$LUPREC
 70
     4
  9
$SKETCHINC
 40
0.1
  9
$FILLETRAD
 40
0.0
  9
$AUNITS
 70
     0
  9
$AUPREC
 70
     0
  9
$MENU
  1
.
  9
$ELEVATION
 40
0.0
  9
$PELEVATION
 40
0.0
  9
$THICKNESS
 40
0.0
  9
$LIMCHECK
 70
     0
  9
$CHAMFERA
 40
0.5
  9
$CHAMFERB
 40
0.5
  9
$CHAMFERC
 40
1.0
  9
$CHAMFERD
 40
0.0
  9
$SKPOLY
 70
     0
  9
$TDCREATE
 40
2455841.606800220
  9
$TDUCREATE
 40
2455841.273466887
  9
$TDUPDATE
 40
2457605.579494665
  9
$TDUUPDATE
 40
2457605.246161331
  9
$TDINDWG
 40
0.0418846644
  9
$TDUSRTIMER
 40
0.0418844097
  9
$USRTIMER
 70
     1
  9
$ANGBASE
 50
0.0
  9
$ANGDIR
 70
     0
  9
$PDMODE
 70
     0
  9
$PDSIZE
 40
0.0
  9
$PLINEWID
 40
0.0
  9
$SPLFRAME
 70
     0
  9
$SPLINETYPE
 70
     6
  9
$SPLINESEGS
 70
     8
  9
$HANDSEED
  5
4B5B
  9
$SURFTAB1
 70
     6
  9
$SURFTAB2
 70
     6
  9
$SURFTYPE
 70
     6
  9
$SURFU
 70
     6
  9
$SURFV
 70
     6
  9
$UCSBASE
  2

  9
$UCSNAME
  2

  9
$UCSORG
 10
0.0
 20
0.0
 30
0.0
  9
$UCSXDIR
 10
1.0
 20
0.0
 30
0.0
  9
$UCSYDIR
 10
0.0
 20
1.0
 30
0.0
  9
$UCSORTHOREF
  2

  9
$UCSORTHOVIEW
 70
     0
  9
$UCSORGTOP
 10
0.0
 20
0.0
 30
0.0
  9
$UCSORGBOTTOM
 10
0.0
 20
0.0
 30
0.0
  9
$UCSORGLEFT
 10
0.0
 20
0.0
 30
0.0
  9
$UCSORGRIGHT
 10
0.0
 20
0.0
 30
0.0
  9
$UCSORGFRONT
 10
0.0
 20
0.0
 30
0.0
  9
$UCSORGBACK
 10
0.0
 20
0.0
 30
0.0
  9
$PUCSBASE
  2

  9
$PUCSNAME
  2

  9
$PUCSORG
 10
0.0
 20
0.0
 30
0.0
  9
$PUCSXDIR
 10
1.0
 20
0.0
 30
0.0
  9
$PUCSYDIR
 10
0.0
 20
1.0
 30
0.0
  9
$PUCSORTHOREF
  2

  9
$PUCSORTHOVIEW
 70
     0
  9
$PUCSORGTOP
 10
0.0
 20
0.0
 30
0.0
  9
$PUCSORGBOTTOM
 10
0.0
 20
0.0
 30
0.0
  9
$PUCSORGLEFT
 10
0.0
 20
0.0
 30
0.0
  9
$PUCSORGRIGHT
 10
0.0
 20
0.0
 30
0.0
  9
$PUCSORGFRONT
 10
0.0
 20
0.0
 30
0.0
  9
$PUCSORGBACK
 10
0.0
 20
0.0
 30
0.0
  9
$USERI1
 70
     0
  9
$USERI2
 70
     0
  9
$USERI3
 70
     0
  9
$USERI4
 70
     0
  9
$USERI5
 70
     0
  9
$USERR1
 40
0.0
  9
$USERR2
 40
0.0
  9
$USERR3
 40
0.0
  9
$USERR4
 40
0.0
  9
$USERR5
 40
0.0
  9
$WORLDVIEW
 70
     1
  9
$SHADEDGE
 70
     3
  9
$SHADEDIF
 70
    70
  9
$TILEMODE
 70
     1
  9
$MAXACTVP
 70
    64
  9
$PINSBASE
 10
0.0
 20
0.0
 30
0.0
  9
$PLIMCHECK
 70
     0
  9
$PEXTMIN
 10
1.000000000000000E+20
 20
1.000000000000000E+20
 30
1.000000000000000E+20
  9
$PEXTMAX
 10
-1.000000000000000E+20
 20
-1.000000000000000E+20
 30
-1.000000000000000E+20
  9
$PLIMMIN
 10
0.0
 20
0.0
  9
$PLIMMAX
 10
12.0
 20
9.0
  9
$UNITMODE
 70
     0
  9
$VISRETAIN
 70
     1
  9
$PLINEGEN
 70
     0
  9
$PSLTSCALE
 70
     1
  9
$TREEDEPTH
 70
  3020
  9
$CMLSTYLE
  2
Standard
  9
$CMLJUST
 70
     0
  9
$CMLSCALE
 40
1.0
  9
$PROXYGRAPHICS
 70
     1
  9
$MEASUREMENT
 70
     0
  9
$CELWEIGHT
370
    -1
  9
$ENDCAPS
280
     0
  9
$JOINSTYLE
280
     0
  9
$LWDISPLAY
290
     0
  9
$INSUNITS
 70
     1
  9
$HYPERLINKBASE
  1

  9
$STYLESHEET
  1
MONOCHROME.CTB
  9
$XEDIT
290
     1
  9
$CEPSNTYPE
380
     0
  9
$PSTYLEMODE
290
     1
  9
$FINGERPRINTGUID
  2
{168A8766-4015-4ABD-915A-AD1ECBE2E3C2}
  9
$VERSIONGUID
  2
{A57AA085-E23C-4227-8EB3-827FB35F0E58}
  9
$EXTNAMES
290
     1
  9
$PSVPSCALE
 40
0.0
  9
$OLESTARTUP
290
     0
  9
$SORTENTS
280
   127
  9
$INDEXCTL
280
     0
  9
$HIDETEXT
280
     1
  9
$XCLIPFRAME
290
     0
  9
$HALOGAP
280
     0
  9
$OBSCOLOR
 70
   257
  9
$OBSLTYPE
280
     0
  9
$INTERSECTIONDISPLAY
280
     0
  9
$INTERSECTIONCOLOR
 70
   257
  9
$DIMASSOC
280
     2
  9
$PROJECTNAME
  1

  9
$CAMERADISPLAY
290
     0
  9
$LENSLENGTH
 40
50.0
  9
$CAMERAHEIGHT
 40
0.0
  9
$STEPSPERSEC
 40
2.0
  9
$STEPSIZE
 40
6.0
  9
$3DDWFPREC
 40
2.0
  9
$PSOLWIDTH
 40
0.25
  9
$PSOLHEIGHT
 40
4.0
  9
$LOFTANG1
 40
1.570796326794896
  9
$LOFTANG2
 40
1.570796326794896
  9
$LOFTMAG1
 40
0.0
  9
$LOFTMAG2
 40
0.0
  9
$LOFTPARAM
 70
     7
  9
$LOFTNORMALS
280
     1
  9
$LATITUDE
 40
37.795
  9
$LONGITUDE
 40
-122.394
  9
$NORTHDIRECTION
 40
0.0
  9
$TIMEZONE
 70
 -8000
  9
$LIGHTGLYPHDISPLAY
280
     1
  9
$TILEMODELIGHTSYNCH
280
     1
  9
$CMATERIAL
347
3510
  9
$SOLIDHIST
280
     1
  9
$SHOWHIST
280
     1
  9
$DWFFRAME
280
     2
  9
$DGNFRAME
280
     0
  9
$REALWORLDSCALE
290
     1
  9
$INTERFERECOLOR
 62
     1
  9
$INTERFEREOBJVS
345
31
  9
$INTERFEREVPVS
346
2E
  9
$CSHADOW
280
     0
  9
$SHADOWPLANELOCATION
 40
0.0
  0
ENDSEC
  0
SECTION
  2
CLASSES
  0
CLASS
  1
ACDBDICTIONARYWDFLT
  2
AcDbDictionaryWithDefault
  3
ObjectDBX Classes
 90
        0
 91
        1
280
     0
281
     0
  0
CLASS
  1
VISUALSTYLE
  2
AcDbVisualStyle
  3
ObjectDBX Classes
 90
     4095
 91
       16
280
     0
281
     0
  0
CLASS
  1
DIMASSOC
  2
AcDbDimAssoc
  3
"AcDbDimAssoc|Product Desc:     AcDim ARX App For Dimension|Company:          Autodesk, Inc.|WEB Address:      www.autodesk.com"
 90
        0
 91
        0
280
     0
281
     0
  0
CLASS
  1
MATERIAL
  2
AcDbMaterial
  3
ObjectDBX Classes
 90
     1024
 91
        3
280
     0
281
     0
  0
CLASS
  1
TABLESTYLE
  2
AcDbTableStyle
  3
ObjectDBX Classes
 90
     4095
 91
        1
280
     0
281
     0
  0
CLASS
  1
DICTIONARYVAR
  2
AcDbDictionaryVar
  3
ObjectDBX Classes
 90
        0
 91
        1
280
     0
281
     0
  0
CLASS
  1
SORTENTSTABLE
  2
AcDbSortentsTable
  3
ObjectDBX Classes
 90
        0
 91
        0
280
     0
281
     0
  0
ENDSEC
  0
SECTION
  2
TABLES
  0
TABLE
  2
VPORT
  5
8
330
0
100
AcDbSymbolTable
 70
     1
  0
VPORT
  5
27
330
8
100
AcDbSymbolTableRecord
100
AcDbViewportTableRecord
  2
*Active
 70
     0
 10
0.0
 20
0.0
 11
1.0
 21
1.0
 12
722.4669553674662
 22
366.118263261169
 13
0.0
 23
0.0
 14
0.5
 24
0.5
 15
0.5
 25
0.5
 16
0.0
 26
0.0
 36
1.0
 17
0.0
 27
0.0
 37
0.0
 40
137.418197067961
 41
2.581488933601609
 42
50.0
 43
0.0
 44
0.0
 50
0.0
 51
0.0
 71
     0
 72
   100
 73
     1
 74
     3
 75
     1
 76
     0
 77
     0
 78
     0
281
     0
 65
     1
110
0.0
120
0.0
130
0.0
111
1.0
121
0.0
131
0.0
112
0.0
122
1.0
132
0.0
 79
     0
146
0.0
348
2D
 60
     3
 61
     5
292
     1
282
     1
141
0.0
142
0.0
 63
   250
421
  3355443
  0
ENDTAB
  0
TABLE
  2
LTYPE
  5
5
330
0
100
AcDbSymbolTable
 70
     6
  0
LTYPE
  5
14
330
5
100
AcDbSymbolTableRecord
100
AcDbLinetypeTableRecord
  2
ByBlock
 70
     0
  3

 72
    65
 73
     0
 40
0.0
  0
LTYPE
  5
15
330
5
100
AcDbSymbolTableRecord
100
AcDbLinetypeTableRecord
  2
ByLayer
 70
     0
  3

 72
    65
 73
     0
 40
0.0
  0
LTYPE
  5
16
330
5
100
AcDbSymbolTableRecord
100
AcDbLinetypeTableRecord
  2
Continuous
 70
     0
  3
Solid line
 72
    65
 73
     0
 40
0.0
  0
LTYPE
  5
5B
330
5
100
AcDbSymbolTableRecord
100
AcDbLinetypeTableRecord
  2
CENTERX2
 70
     0
  3
Center (2x) ________  __  ________  __  _____
 72
    65
 73
     4
 40
101.6
 49
63.5
 74
     4
 75
     0
340
0
 46
1.0
 50
0.0
 44
0.0
 45
0.0
 49
-12.7
 74
     4
 75
     0
340
0
 46
1.0
 50
0.0
 44
0.0
 45
0.0
 49
12.7
 74
     4
 75
     0
340
0
 46
1.0
 50
0.0
 44
0.0
 45
0.0
 49
-12.7
 74
     4
 75
     0
340
0
 46
1.0
 50
0.0
 44
0.0
 45
0.0
  0
LTYPE
  5
192
330
5
100
AcDbSymbolTableRecord
100
AcDbLinetypeTableRecord
  2
CENTER
 70
     0
  3
Center ____ _ ____ _ ____ _ ____ _ ____ _ ____
 72
    65
 73
     4
 40
50.8
 49
31.75
 74
     4
 75
     0
340
0
 46
1.0
 50
0.0
 44
0.0
 45
0.0
 49
-6.349999999999999
 74
     4
 75
     0
340
0
 46
1.0
 50
0.0
 44
0.0
 45
0.0
 49
6.349999999999999
 74
     4
 75
     0
340
0
 46
1.0
 50
0.0
 44
0.0
 45
0.0
 49
-6.349999999999999
 74
     4
 75
     0
340
0
 46
1.0
 50
0.0
 44
0.0
 45
0.0
  0
LTYPE
  5
112E
330
5
100
AcDbSymbolTableRecord
100
AcDbLinetypeTableRecord
  2
DASHED
 70
     0
  3
Dashed __ __ __ __ __ __ __ __ __ __ __ __ __ _
 72
    65
 73
     2
 40
19.05
 49
12.7
 74
     4
 75
     0
340
0
 46
1.0
 50
0.0
 44
0.0
 45
0.0
 49
-6.349999999999999
 74
     4
 75
     0
340
0
 46
1.0
 50
0.0
 44
0.0
 45
0.0
  0
LTYPE
  5
121B
330
5
100
AcDbSymbolTableRecord
100
AcDbLinetypeTableRecord
  2
ACAD_ISO02W100
 70
     0
  3
ISO dash __ __ __ __ __ __ __ __ __ __ __ __ __
 72
    65
 73
     2
 40
15.0
 49
12.0
 74
     4
 75
     0
340
0
 46
1.0
 50
0.0
 44
0.0
 45
0.0
 49
-3.0
 74
     4
 75
     0
340
0
 46
1.0
 50
0.0
 44
0.0
 45
0.0
  0
LTYPE
  5
121C
330
5
100
AcDbSymbolTableRecord
100
AcDbLinetypeTableRecord
  2
DIVIDE
 70
     0
  3
Divide ____ . . ____ . . ____ . . ____ . . ____
 72
    65
 73
     6
 40
31.75
 49
12.7
 74
     4
 75
     0
340
0
 46
1.0
 50
0.0
 44
0.0
 45
0.0
 49
-6.349999999999999
 74
     4
 75
     0
340
0
 46
1.0
 50
0.0
 44
0.0
 45
0.0
 49
0.0
 74
     4
 75
     0
340
0
 46
1.0
 50
0.0
 44
0.0
 45
0.0
 49
-6.349999999999999
 74
     4
 75
     0
340
0
 46
1.0
 50
0.0
 44
0.0
 45
0.0
 49
0.0
 74
     4
 75
     0
340
0
 46
1.0
 50
0.0
 44
0.0
 45
0.0
 49
-6.349999999999999
 74
     4
 75
     0
340
0
 46
1.0
 50
0.0
 44
0.0
 45
0.0
  0
ENDTAB
  0
TABLE
  2
LAYER
  5
2
102
{ACAD_XDICTIONARY
360
36E2
102
}
330
0
100
AcDbSymbolTable
 70
    17
  0
LAYER
  5
10
330
2
100
AcDbSymbolTableRecord
100
AcDbLayerTableRecord
  2
0
 70
     0
 62
     7
  6
Continuous
370
    -3
390
F
347
3512
  0
LAYER
  5
5C
330
2
100
AcDbSymbolTableRecord
100
AcDbLayerTableRecord
  2
粗实线
 70
     0
 62
     7
  6
Continuous
370
    30
390
F
347
3512
1001
AcAecLayerStandard
1000

1000

  0
LAYER
  5
5D
330
2
100
AcDbSymbolTableRecord
100
AcDbLayerTableRecord
  2
中心线
 70
     0
 62
     1
  6
CENTERX2
370
    15
390
F
347
3512
1001
AcAecLayerStandard
1000

1000

  0
LAYER
  5
5E
330
2
100
AcDbSymbolTableRecord
100
AcDbLayerTableRecord
  2
标注
 70
     0
 62
     4
  6
Continuous
370
    15
390
F
347
3512
1001
AcAecLayerStandard
1000

1000

  0
LAYER
  5
5F
330
2
100
AcDbSymbolTableRecord
100
AcDbLayerTableRecord
  2
Defpoints
 70
     0
 62
     7
  6
Continuous
290
     0
370
    -3
390
F
347
3512
  0
LAYER
  5
118
330
2
100
AcDbSymbolTableRecord
100
AcDbLayerTableRecord
  2
图层1粗线
 70
     0
 62
     7
  6
Continuous
370
    -3
390
F
347
3512
1001
AcAecLayerStandard
1000

1000

  0
LAYER
  5
193
330
2
100
AcDbSymbolTableRecord
100
AcDbLayerTableRecord
  2
细实线
 70
     0
 62
     3
  6
Continuous
370
    15
390
F
347
3512
1001
AcAecLayerStandard
1000

1000

  0
LAYER
  5
357
330
2
100
AcDbSymbolTableRecord
100
AcDbLayerTableRecord
  2
图层2
 70
     0
 62
     7
  6
Continuous
370
    30
390
F
347
3512
1001
AcAecLayerStandard
1000

1000

  0
LAYER
  5
358
330
2
100
AcDbSymbolTableRecord
100
AcDbLayerTableRecord
  2
图层3
 70
     0
 62
     7
  6
Continuous
370
    18
390
F
347
3512
1001
AcAecLayerStandard
1000

1000

  0
LAYER
  5
4E7
330
2
100
AcDbSymbolTableRecord
100
AcDbLayerTableRecord
  2
文字
 70
     0
 62
     1
  6
Continuous
370
    15
390
F
347
3512
1001
AcAecLayerStandard
1000

1000

  0
LAYER
  5
4E8
330
2
100
AcDbSymbolTableRecord
100
AcDbLayerTableRecord
  2
不可见
 70
     0
 62
     2
  6
Continuous
290
     0
370
    15
390
F
347
3512
1001
AcAecLayerStandard
1000

1000

  0
LAYER
  5
4E9
330
2
100
AcDbSymbolTableRecord
100
AcDbLayerTableRecord
  2
图层2细线
 70
     0
 62
     3
  6
Continuous
370
    -3
390
F
347
3512
1001
AcAecLayerStandard
1000

1000

  0
LAYER
  5
4EA
330
2
100
AcDbSymbolTableRecord
100
AcDbLayerTableRecord
  2
图框线
 70
     0
 62
     7
  6
Continuous
370
    13
390
F
347
3512
1001
AcAecLayerStandard
1000

1000

  0
LAYER
  5
4EB
330
2
100
AcDbSymbolTableRecord
100
AcDbLayerTableRecord
  2
图层 1
 70
     0
 62
     7
  6
Continuous
370
    -3
390
F
347
3512
  0
LAYER
  5
112F
330
2
100
AcDbSymbolTableRecord
100
AcDbLayerTableRecord
  2
图层1
 70
     0
 62
     7
  6
DASHED
370
    25
390
F
347
3512
1001
AcAecLayerStandard
1000

1000

  0
LAYER
  5
121D
330
2
100
AcDbSymbolTableRecord
100
AcDbLayerTableRecord
  2
虚线
 70
     0
 62
     2
  6
ACAD_ISO02W100
370
    15
390
F
347
3512
1001
AcAecLayerStandard
1000

1000

  0
LAYER
  5
121E
330
2
100
AcDbSymbolTableRecord
100
AcDbLayerTableRecord
  2
剖切线
 70
     0
 62
   241
  6
Continuous
370
    15
390
F
347
3512
1001
AcAecLayerStandard
1000

1000

  0
ENDTAB
  0
TABLE
  2
STYLE
  5
3
330
0
100
AcDbSymbolTable
 70
     5
  0
STYLE
  5
11
330
3
100
AcDbSymbolTableRecord
100
AcDbTextStyleTableRecord
  2
Standard
 70
     0
 40
0.0
 41
1.0
 50
0.0
 71
     0
 42
0.2
  3
txt
  4

  0
STYLE
  5
5A
330
3
100
AcDbSymbolTableRecord
100
AcDbTextStyleTableRecord
  2
样式 8
 70
     0
 40
10.0
 41
0.7
 50
0.0
 71
     0
 42
10.0
  3
txt.shx
  4
gbcbig.shx
  0
STYLE
  5
117
330
3
100
AcDbSymbolTableRecord
100
AcDbTextStyleTableRecord
  2
样式 1
 70
     0
 40
5.0
 41
1.0
 50
0.0
 71
     0
 42
5.0
  3
txt.shx
  4
gbcbig.shx
  0
STYLE
  5
356
330
3
100
AcDbSymbolTableRecord
100
AcDbTextStyleTableRecord
  2
样式 2
 70
     0
 40
0.0
 41
0.35
 50
0.0
 71
     0
 42
2.5
  3
txt.shx
  4
gbcbig.shx
  0
STYLE
  5
4E6
330
3
100
AcDbSymbolTableRecord
100
AcDbTextStyleTableRecord
  2
样式 3
 70
     0
 40
3.5
 41
0.7
 50
0.0
 71
     0
 42
5.0
  3
txt.shx
  4
gbcbig.shx
  0
ENDTAB
  0
TABLE
  2
VIEW
  5
6
330
0
100
AcDbSymbolTable
 70
     0
  0
ENDTAB
  0
TABLE
  2
UCS
  5
7
330
0
100
AcDbSymbolTable
 70
     0
  0
ENDTAB
  0
TABLE
  2
APPID
  5
9
330
0
100
AcDbSymbolTable
 70
    46
  0
APPID
  5
12
330
9
100
AcDbSymbolTableRecord
100
AcDbRegAppTableRecord
  2
ACAD
 70
     0
  0
APPID
  5
3B
330
9
100
AcDbSymbolTableRecord
100
AcDbRegAppTableRecord
  2
ACAD_PSEXT
 70
     0
  0
APPID
  5
3C
330
9
100
AcDbSymbolTableRecord
100
AcDbRegAppTableRecord
  2
AcAecLayerStandard
 70
     0
  0
APPID
  5
3D
330
9
100
AcDbSymbolTableRecord
100
AcDbRegAppTableRecord
  2
ACAD_DSTYLE_DIMTEXT_FILL
 70
     0
  0
APPID
  5
3E
330
9
100
AcDbSymbolTableRecord
100
AcDbRegAppTableRecord
  2
DCO15
 70
     0
  0
APPID
  5
3F
330
9
100
AcDbSymbolTableRecord
100
AcDbRegAppTableRecord
  2
ACAD_DSTYLE_DIMEXT_LENGTH
 70
     0
  0
APPID
  5
40
330
9
100
AcDbSymbolTableRecord
100
AcDbRegAppTableRecord
  2
ACAD_DSTYLE_DIMEXT_ENABLED
 70
     0
  0
APPID
  5
41
330
9
100
AcDbSymbolTableRecord
100
AcDbRegAppTableRecord
  2
ACAD_DSTYLE_DIM_LINETYPE
 70
     0
  0
APPID
  5
42
330
9
100
AcDbSymbolTableRecord
100
AcDbRegAppTableRecord
  2
ACAD_DSTYLE_DIM_EXT1_LINETYPE
 70
     0
  0
APPID
  5
43
330
9
100
AcDbSymbolTableRecord
100
AcDbRegAppTableRecord
  2
ACAD_DSTYLE_DIM_EXT2_LINETYPE
 70
     0
  0
APPID
  5
44
330
9
100
AcDbSymbolTableRecord
100
AcDbRegAppTableRecord
  2
ACAD_EXEMPT_FROM_CAD_STANDARDS
 70
     0
  0
APPID
  5
45
330
9
100
AcDbSymbolTableRecord
100
AcDbRegAppTableRecord
  2
AcadAnnoPO
 70
     0
  0
APPID
  5
46
330
9
100
AcDbSymbolTableRecord
100
AcDbRegAppTableRecord
  2
AcadAnnotative
 70
     0
  0
APPID
  5
47
330
9
100
AcDbSymbolTableRecord
100
AcDbRegAppTableRecord
  2
ACAD_DSTYLE_DIMJAG
 70
     0
  0
APPID
  5
48
330
9
100
AcDbSymbolTableRecord
100
AcDbRegAppTableRecord
  2
ACAD_DSTYLE_DIMTALN
 70
     0
  0
APPID
  5
49
330
9
100
AcDbSymbolTableRecord
100
AcDbRegAppTableRecord
  2
ACAD_MLEADERVER
 70
     0
  0
APPID
  5
4A
330
9
100
AcDbSymbolTableRecord
100
AcDbRegAppTableRecord
  2
ACAD_DSTYLE_DIMRADIAL_EXTENSION
 70
     0
  0
APPID
  5
4B
330
9
100
AcDbSymbolTableRecord
100
AcDbRegAppTableRecord
  2
ACAD_DSTYLE_DIMBREAK
 70
     0
  0
APPID
  5
4C
330
9
100
AcDbSymbolTableRecord
100
AcDbRegAppTableRecord
  2
ACAD_DSTYLE_DIMARC_LENGTH_SYMBOL
 70
     0
  0
APPID
  5
4D
330
9
100
AcDbSymbolTableRecord
100
AcDbRegAppTableRecord
  2
ACAD_DSTYLE_DIMJOGGED_JOGANGLE_SYMBOL
 70
     0
  0
APPID
  5
4E
330
9
100
AcDbSymbolTableRecord
100
AcDbRegAppTableRecord
  2
MCAD_NO_VIS
 70
     0
  0
APPID
  5
4F
330
9
100
AcDbSymbolTableRecord
100
AcDbRegAppTableRecord
  2
ACAD_TEMP_GRAPHIC
 70
     0
  0
APPID
  5
50
330
9
100
AcDbSymbolTableRecord
100
AcDbRegAppTableRecord
  2
AD_DRAW
 70
     0
  0
APPID
  5
51
330
9
100
AcDbSymbolTableRecord
100
AcDbRegAppTableRecord
  2
ACATTRIBSERVICES
 70
     0
  0
APPID
  5
52
330
9
100
AcDbSymbolTableRecord
100
AcDbRegAppTableRecord
  2
DESIGNERASSEMBLIES
 70
     0
  0
APPID
  5
53
330
9
100
AcDbSymbolTableRecord
100
AcDbRegAppTableRecord
  2
ACADM_DIM_EDIT
 70
     0
  0
APPID
  5
54
330
9
100
AcDbSymbolTableRecord
100
AcDbRegAppTableRecord
  2
AMDT_DM_ADJ
 70
     0
  0
APPID
  5
55
330
9
100
AcDbSymbolTableRecord
100
AcDbRegAppTableRecord
  2
GENIUS_GENODEF_13
 70
     0
  0
APPID
  5
56
330
9
100
AcDbSymbolTableRecord
100
AcDbRegAppTableRecord
  2
GENIUS_GENOBJ-N-FIL_13
 70
     0
  0
APPID
  5
57
330
9
100
AcDbSymbolTableRecord
100
AcDbRegAppTableRecord
  2
ACAD_DIMASSOC_CALC_DIMLFAC
 70
     0
  0
APPID
  5
58
330
9
100
AcDbSymbolTableRecord
100
AcDbRegAppTableRecord
  2
ACAD_DIMASSOC_DIMLFAC
 70
     0
  0
APPID
  5
59
330
9
100
AcDbSymbolTableRecord
100
AcDbRegAppTableRecord
  2
ACAD_DIMASSOC_OVERRIDDEN_DIMLFAC
 70
     0
  0
APPID
  5
4E5
330
9
100
AcDbSymbolTableRecord
100
AcDbRegAppTableRecord
  2
CAXA
 70
     0
  0
APPID
  5
1BF7
330
9
100
AcDbSymbolTableRecord
100
AcDbRegAppTableRecord
  2
AVE_RENDER
 70
     0
  0
APPID
  5
1BF8
330
9
100
AcDbSymbolTableRecord
100
AcDbRegAppTableRecord
  2
AVE_ENTITY_MATERIAL
 70
     0
  0
APPID
  5
1BF9
330
9
100
AcDbSymbolTableRecord
100
AcDbRegAppTableRecord
  2
AVE_FINISH
 70
     0
  0
APPID
  5
1BFA
330
9
100
AcDbSymbolTableRecord
100
AcDbRegAppTableRecord
  2
AVE_MATERIAL
 70
     0
  0
APPID
  5
1BFB
330
9
100
AcDbSymbolTableRecord
100
AcDbRegAppTableRecord
  2
AVE_GLOBAL
 70
     0
  0
APPID
  5
1BFC
330
9
100
AcDbSymbolTableRecord
100
AcDbRegAppTableRecord
  2
GENIUS_GENBLLY_14
 70
     0
  0
APPID
  5
1BFD
330
9
100
AcDbSymbolTableRecord
100
AcDbRegAppTableRecord
  2
ODA
 70
     0
  0
APPID
  5
1BFE
330
9
100
AcDbSymbolTableRecord
100
AcDbRegAppTableRecord
  2
RAK
 70
     0
  0
APPID
  5
1BFF
330
9
100
AcDbSymbolTableRecord
100
AcDbRegAppTableRecord
  2
AcDbDynamicBlockGUID
 70
     0
  0
APPID
  5
1C00
330
9
100
AcDbSymbolTableRecord
100
AcDbRegAppTableRecord
  2
AcDbBlockRepETag
 70
     0
  0
APPID
  5
1C01
330
9
100
AcDbSymbolTableRecord
100
AcDbRegAppTableRecord
  2
ACAUTHENVIRON
 70
     0
  0
APPID
  5
1C02
330
9
100
AcDbSymbolTableRecord
100
AcDbRegAppTableRecord
  2
AcDbDynamicBlockTrueName
 70
     0
  0
APPID
  5
49FC
330
9
100
AcDbSymbolTableRecord
100
AcDbRegAppTableRecord
  2
AcDbAttr
 70
     0
  0
ENDTAB
  0
TABLE
  2
DIMSTYLE
  5
A
330
0
100
AcDbSymbolTable
 70
     5
100
AcDbDimStyleTable
 71
     0
  0
DIMSTYLE
105
25
330
A
100
AcDbSymbolTableRecord
100
AcDbDimStyleTableRecord
  2
Standard
 70
     0
340
11
  0
DIMSTYLE
105
60
330
A
100
AcDbSymbolTableRecord
100
AcDbDimStyleTableRecord
  2
副本 (3) ISO-25 4
 70
     0
 41
14.0
 42
0.0
 43
10.0
 44
6.0
 73
     0
 74
     0
 77
     1
 78
     8
140
20.0
141
7.5
143
0.03937007874016
147
1.5
171
     3
172
     1
271
     1
272
     1
274
     3
283
     0
284
     8
340
11
  0
DIMSTYLE
105
119
330
A
100
AcDbSymbolTableRecord
100
AcDbDimStyleTableRecord
  2
副本 ISO-25
 70
     0
 41
12.0
 42
0.0
 43
10.0
 44
5.0
 73
     0
 74
     0
 77
     1
 78
     8
140
18.0
141
1.5
143
0.03937007874016
147
1.5
171
     3
172
     1
271
     1
272
     1
274
     3
278
    44
283
     0
284
     8
340
11
  0
DIMSTYLE
105
359
330
A
100
AcDbSymbolTableRecord
100
AcDbDimStyleTableRecord
  2
ISO-25
 70
     0
 41
17.0
 42
3.0
 43
3.75
 44
1.25
 73
     0
 77
     1
 78
     8
140
19.0
141
80.0
143
0.03937007874016
147
7.0
170
     1
171
     3
172
     1
271
     2
272
     2
273
     7
274
     3
283
     0
284
     8
340
11
  0
DIMSTYLE
105
4EC
102
{ACAD_REACTORS
330
477D
330
477E
330
477F
330
4780
330
4781
330
4782
330
489C
330
489D
102
}
330
A
100
AcDbSymbolTableRecord
100
AcDbDimStyleTableRecord
  2
英寸
 70
     0
 41
12.0
 42
0.0
 43
10.0
 44
3.75
 73
     0
 74
     0
 77
     1
 78
     8
140
16.0
141
7.5
143
0.03937007874016
147
2.0
170
     1
171
     3
172
     1
179
     1
271
     1
272
     1
273
     7
274
     3
283
     0
284
     8
340
11
  0
ENDTAB
  0
TABLE
  2
BLOCK_RECORD
  5
1
330
0
100
AcDbSymbolTable
 70
     9
  0
BLOCK_RECORD
  5
1F
330
1
100
AcDbSymbolTableRecord
100
AcDbBlockTableRecord
  2
*Model_Space
340
22
 70
     0
280
     1
281
     0
  0
BLOCK_RECORD
  5
1B
330
1
100
AcDbSymbolTableRecord
100
AcDbBlockTableRecord
  2
*Paper_Space
340
1E
 70
     0
280
     1
281
     0
  0
BLOCK_RECORD
  5
23
330
1
100
AcDbSymbolTableRecord
100
AcDbBlockTableRecord
  2
*Paper_Space0
340
24
 70
     0
280
     1
281
     0
  0
BLOCK_RECORD
  5
4783
330
1
100
AcDbSymbolTableRecord
100
AcDbBlockTableRecord
  2
*D1
340
0
 70
     0
280
     1
281
     0
  0
BLOCK_RECORD
  5
478F
330
1
100
AcDbSymbolTableRecord
100
AcDbBlockTableRecord
  2
*D2
340
0
 70
     0
280
     1
281
     0
  0
BLOCK_RECORD
  5
479B
330
1
100
AcDbSymbolTableRecord
100
AcDbBlockTableRecord
  2
*D3
340
0
 70
     0
280
     1
281
     0
  0
BLOCK_RECORD
  5
47A7
330
1
100
AcDbSymbolTableRecord
100
AcDbBlockTableRecord
  2
*D4
340
0
 70
     0
280
     1
281
     0
  0
BLOCK_RECORD
  5
47B3
330
1
100
AcDbSymbolTableRecord
100
AcDbBlockTableRecord
  2
*D5
340
0
 70
     0
280
     1
281
     0
  0
BLOCK_RECORD
  5
47BF
330
1
100
AcDbSymbolTableRecord
100
AcDbBlockTableRecord
  2
*D6
340
0
 70
     0
280
     1
281
     0
  0
BLOCK_RECORD
  5
489E
330
1
100
AcDbSymbolTableRecord
100
AcDbBlockTableRecord
  2
*D7
340
0
 70
     0
280
     1
281
     0
  0
BLOCK_RECORD
  5
48AC
330
1
100
AcDbSymbolTableRecord
100
AcDbBlockTableRecord
  2
*D8
340
0
 70
     0
280
     1
281
     0
  0
ENDTAB
  0
ENDSEC
  0
SECTION
  2
BLOCKS
  0
BLOCK
  5
20
330
1F
100
AcDbEntity
  8
0
100
AcDbBlockBegin
  2
*Model_Space
 70
     0
 10
0.0
 20
0.0
 30
0.0
  3
*Model_Space
  1

  0
ENDBLK
  5
21
330
1F
100
AcDbEntity
  8
0
100
AcDbBlockEnd
  0
BLOCK
  5
1C
330
1B
100
AcDbEntity
 67
     1
  8
0
100
AcDbBlockBegin
  2
*Paper_Space
 70
     0
 10
0.0
 20
0.0
 30
0.0
  3
*Paper_Space
  1

  0
ENDBLK
  5
1D
330
1B
100
AcDbEntity
 67
     1
  8
0
100
AcDbBlockEnd
  0
BLOCK
  5
39
330
23
100
AcDbEntity
 67
     1
  8
0
100
AcDbBlockBegin
  2
*Paper_Space0
 70
     0
 10
0.0
 20
0.0
 30
0.0
  3
*Paper_Space0
  1

  0
ENDBLK
  5
3A
330
23
100
AcDbEntity
 67
     1
  8
0
100
AcDbBlockEnd
  0
BLOCK
  5
478D
330
4783
100
AcDbEntity
  8
0
100
AcDbBlockBegin
  2
*D1
 70
     1
 10
0.0
 20
0.0
 30
0.0
  3
*D1
  1

  0
LINE
  5
499F
330
4783
100
AcDbEntity
  8
标注
 62
     0
370
    -2
100
AcDbLine
 10
856.2664468469479
 20
781.5
 30
0.0
 11
856.2664468469479
 21
859.6111632339487
 31
0.0
  0
LINE
  5
49A0
330
4783
100
AcDbEntity
  8
标注
 62
     0
370
    -2
100
AcDbLine
 10
311.2664468469479
 20
795.5
 30
0.0
 11
311.2664468469479
 21
859.6111632339487
 31
0.0
  0
LINE
  5
49A1
330
4783
100
AcDbEntity
  8
标注
 62
     0
370
    -2
100
AcDbLine
 10
848.2664468469479
 20
855.8611632339488
 30
0.0
 11
319.2664468469479
 21
855.8611632339488
 31
0.0
  0
SOLID
  5
49A2
330
4783
100
AcDbEntity
  8
标注
 62
     0
100
AcDbTrace
 10
848.2664468469479
 20
857.1944965672823
 30
0.0
 11
848.2664468469479
 21
854.5278299006154
 31
0.0
 12
856.2664468469479
 22
855.8611632339488
 32
0.0
 13
856.2664468469479
 23
855.8611632339488
 33
0.0
  0
SOLID
  5
49A3
330
4783
100
AcDbEntity
  8
标注
 62
     0
100
AcDbTrace
 10
319.2664468469479
 20
857.1944965672823
 30
0.0
 11
319.2664468469479
 21
854.5278299006154
 31
0.0
 12
311.2664468469479
 22
855.8611632339488
 32
0.0
 13
311.2664468469479
 23
855.8611632339488
 33
0.0
  0
MTEXT
  5
49A4
330
4783
100
AcDbEntity
  8
标注
 62
     0
100
AcDbMText
 10
584.0329343690282
 20
868.218598431766
 30
0.0
 40
16.0
 41
0.0
 46
0.0
 71
     5
 72
     1
  1
{\fArial|b0|i0|c0|p34;545 [21 1/2]}
 73
     1
 44
1.0
  0
POINT
  5
49A5
330
4783
100
AcDbEntity
  8
Defpoints
 62
     0
100
AcDbPoint
 10
856.2664468469479
 20
781.5
 30
0.0
  0
POINT
  5
49A6
330
4783
100
AcDbEntity
  8
Defpoints
 62
     0
100
AcDbPoint
 10
311.2664468469479
 20
795.5
 30
0.0
  0
POINT
  5
49A7
330
4783
100
AcDbEntity
  8
Defpoints
 62
     0
100
AcDbPoint
 10
311.2664468469479
 20
855.8611632339488
 30
0.0
  0
ENDBLK
  5
478E
330
4783
100
AcDbEntity
  8
0
100
AcDbBlockEnd
  0
BLOCK
  5
4799
330
478F
100
AcDbEntity
  8
0
100
AcDbBlockBegin
  2
*D2
 70
     1
 10
0.0
 20
0.0
 30
0.0
  3
*D2
  1

  0
LINE
  5
49A8
330
478F
100
AcDbEntity
  8
标注
 62
     0
370
    -2
100
AcDbLine
 10
313.0
 20
786.9999759392786
 30
0.0
 11
230.2877399689498
 21
786.9999759392786
 31
0.0
  0
LINE
  5
49A9
330
478F
100
AcDbEntity
  8
标注
 62
     0
370
    -2
100
AcDbLine
 10
309.5
 20
308.9999759392815
 30
0.0
 11
230.2877399689496
 21
308.9999759392815
 31
0.0
  0
LINE
  5
49AA
330
478F
100
AcDbEntity
  8
标注
 62
     0
370
    -2
100
AcDbLine
 10
234.0377399689498
 20
778.9999759392786
 30
0.0
 11
234.0377399689496
 21
316.9999759392815
 31
0.0
  0
SOLID
  5
49AB
330
478F
100
AcDbEntity
  8
标注
 62
     0
100
AcDbTrace
 10
232.7044066356164
 20
778.9999759392786
 30
0.0
 11
235.3710733022831
 21
778.9999759392786
 31
0.0
 12
234.0377399689498
 22
786.9999759392786
 32
0.0
 13
234.0377399689498
 23
786.9999759392786
 33
0.0
  0
SOLID
  5
49AC
330
478F
100
AcDbEntity
  8
标注
 62
     0
100
AcDbTrace
 10
232.7044066356163
 20
316.9999759392815
 30
0.0
 11
235.371073302283
 21
316.9999759392815
 31
0.0
 12
234.0377399689496
 22
308.9999759392815
 32
0.0
 13
234.0377399689496
 23
308.9999759392815
 33
0.0
  0
MTEXT
  5
49AD
330
478F
100
AcDbEntity
  8
标注
 62
     0
100
AcDbMText
 10
221.6803047711324
 20
547.99997593928
 30
0.0
 40
16.0
 41
0.0
 46
0.0
 71
     5
 72
     1
  1
{\fArial|b0|i0|c0|p34;478 [18 7/8]}
 11
0.0000000000000001
 21
1.0
 31
0.0
 73
     1
 44
1.0
  0
POINT
  5
49AE
330
478F
100
AcDbEntity
  8
Defpoints
 62
     0
100
AcDbPoint
 10
313.0
 20
786.9999759392786
 30
0.0
  0
POINT
  5
49AF
330
478F
100
AcDbEntity
  8
Defpoints
 62
     0
100
AcDbPoint
 10
309.5
 20
308.9999759392815
 30
0.0
  0
POINT
  5
49B0
330
478F
100
AcDbEntity
  8
Defpoints
 62
     0
100
AcDbPoint
 10
234.0377399689496
 20
308.9999759392815
 30
0.0
  0
ENDBLK
  5
479A
330
478F
100
AcDbEntity
  8
0
100
AcDbBlockEnd
  0
BLOCK
  5
47A5
330
479B
100
AcDbEntity
  8
0
100
AcDbBlockBegin
  2
*D3
 70
     1
 10
0.0
 20
0.0
 30
0.0
  3
*D3
  1

  0
LINE
  5
49B1
330
479B
100
AcDbEntity
  8
标注
 62
     0
370
    -2
100
AcDbLine
 10
862.6164468469481
 20
783.4999999999999
 30
0.0
 11
862.6164468469481
 21
893.1111632339488
 31
0.0
  0
LINE
  5
49B2
330
479B
100
AcDbEntity
  8
标注
 62
     0
370
    -2
100
AcDbLine
 10
304.9164468469471
 20
799.5
 30
0.0
 11
304.9164468469471
 21
893.1111632339488
 31
0.0
  0
LINE
  5
49B3
330
479B
100
AcDbEntity
  8
标注
 62
     0
370
    -2
100
AcDbLine
 10
854.6164468469481
 20
889.3611632339487
 30
0.0
 11
312.9164468469471
 21
889.3611632339487
 31
0.0
  0
SOLID
  5
49B4
330
479B
100
AcDbEntity
  8
标注
 62
     0
100
AcDbTrace
 10
854.6164468469481
 20
890.6944965672822
 30
0.0
 11
854.6164468469481
 21
888.0278299006155
 31
0.0
 12
862.6164468469481
 22
889.3611632339487
 32
0.0
 13
862.6164468469481
 23
889.3611632339487
 33
0.0
  0
SOLID
  5
49B5
330
479B
100
AcDbEntity
  8
标注
 62
     0
100
AcDbTrace
 10
312.9164468469471
 20
890.6944965672822
 30
0.0
 11
312.9164468469471
 21
888.0278299006155
 31
0.0
 12
304.9164468469471
 22
889.3611632339487
 32
0.0
 13
304.9164468469471
 23
889.3611632339487
 33
0.0
  0
MTEXT
  5
49B6
330
479B
100
AcDbEntity
  8
标注
 62
     0
100
AcDbMText
 10
584.033116261693
 20
901.6149149392695
 30
0.0
 40
16.0
 41
0.0
 46
0.0
 71
     5
 72
     1
  1
{\fArial|b0|i0|c0|p34;557.7 [22]}
 73
     1
 44
1.0
  0
POINT
  5
49B7
330
479B
100
AcDbEntity
  8
Defpoints
 62
     0
100
AcDbPoint
 10
862.6164468469481
 20
783.4999999999999
 30
0.0
  0
POINT
  5
49B8
330
479B
100
AcDbEntity
  8
Defpoints
 62
     0
100
AcDbPoint
 10
304.9164468469471
 20
799.5
 30
0.0
  0
POINT
  5
49B9
330
479B
100
AcDbEntity
  8
Defpoints
 62
     0
100
AcDbPoint
 10
304.9164468469471
 20
889.3611632339487
 30
0.0
  0
ENDBLK
  5
47A6
330
479B
100
AcDbEntity
  8
0
100
AcDbBlockEnd
  0
BLOCK
  5
47B1
330
47A7
100
AcDbEntity
  8
0
100
AcDbBlockBegin
  2
*D4
 70
     1
 10
0.0
 20
0.0
 30
0.0
  3
*D4
  1

  0
LINE
  5
49BA
330
47A7
100
AcDbEntity
  8
标注
 62
     0
370
    -2
100
AcDbLine
 10
313.0
 20
793.3499759392782
 30
0.0
 11
199.2877399689498
 21
793.3499759392784
 31
0.0
  0
LINE
  5
49BB
330
47A7
100
AcDbEntity
  8
标注
 62
     0
370
    -2
100
AcDbLine
 10
311.0
 20
302.6499759392818
 30
0.0
 11
199.2877399689496
 21
302.6499759392818
 31
0.0
  0
LINE
  5
49BC
330
47A7
100
AcDbEntity
  8
标注
 62
     0
370
    -2
100
AcDbLine
 10
203.0377399689498
 20
785.3499759392784
 30
0.0
 11
203.0377399689496
 21
310.6499759392818
 31
0.0
  0
SOLID
  5
49BD
330
47A7
100
AcDbEntity
  8
标注
 62
     0
100
AcDbTrace
 10
201.7044066356164
 20
785.3499759392784
 30
0.0
 11
204.3710733022831
 21
785.3499759392784
 31
0.0
 12
203.0377399689498
 22
793.3499759392784
 32
0.0
 13
203.0377399689498
 23
793.3499759392784
 33
0.0
  0
SOLID
  5
49BE
330
47A7
100
AcDbEntity
  8
标注
 62
     0
100
AcDbTrace
 10
201.7044066356163
 20
310.6499759392818
 30
0.0
 11
204.371073302283
 21
310.6499759392818
 31
0.0
 12
203.0377399689496
 22
302.6499759392818
 32
0.0
 13
203.0377399689496
 23
302.6499759392818
 33
0.0
  0
MTEXT
  5
49BF
330
47A7
100
AcDbEntity
  8
标注
 62
     0
100
AcDbMText
 10
190.6803047711324
 20
547.99997593928
 30
0.0
 40
16.0
 41
0.0
 46
0.0
 71
     5
 72
     1
  1
{\fArial|b0|i0|c0|p34;490.7 [19 3/8]}
 11
0.0000000000000001
 21
1.0
 31
0.0
 73
     1
 44
1.0
  0
POINT
  5
49C0
330
47A7
100
AcDbEntity
  8
Defpoints
 62
     0
100
AcDbPoint
 10
313.0
 20
793.3499759392782
 30
0.0
  0
POINT
  5
49C1
330
47A7
100
AcDbEntity
  8
Defpoints
 62
     0
100
AcDbPoint
 10
311.0
 20
302.6499759392818
 30
0.0
  0
POINT
  5
49C2
330
47A7
100
AcDbEntity
  8
Defpoints
 62
     0
100
AcDbPoint
 10
203.0377399689496
 20
302.6499759392818
 30
0.0
  0
ENDBLK
  5
47B2
330
47A7
100
AcDbEntity
  8
0
100
AcDbBlockEnd
  0
BLOCK
  5
47BD
330
47B3
100
AcDbEntity
  8
0
100
AcDbBlockBegin
  2
*D5
 70
     1
 10
0.0
 20
0.0
 30
0.0
  3
*D5
  1

  0
LINE
  5
49C3
330
47B3
100
AcDbEntity
  8
标注
 62
     0
370
    -2
100
AcDbLine
 10
849.9164468469485
 20
783.4999999999999
 30
0.0
 11
849.9164468469485
 21
828.6111632339487
 31
0.0
  0
LINE
  5
49C4
330
47B3
100
AcDbEntity
  8
标注
 62
     0
370
    -2
100
AcDbLine
 10
317.6164468469474
 20
797.0
 30
0.0
 11
317.6164468469474
 21
828.6111632339487
 31
0.0
  0
LINE
  5
49C5
330
47B3
100
AcDbEntity
  8
标注
 62
     0
370
    -2
100
AcDbLine
 10
841.9164468469485
 20
824.8611632339487
 30
0.0
 11
325.6164468469474
 21
824.8611632339487
 31
0.0
  0
SOLID
  5
49C6
330
47B3
100
AcDbEntity
  8
标注
 62
     0
100
AcDbTrace
 10
841.9164468469485
 20
826.1944965672823
 30
0.0
 11
841.9164468469485
 21
823.5278299006155
 31
0.0
 12
849.9164468469485
 22
824.8611632339487
 32
0.0
 13
849.9164468469485
 23
824.8611632339487
 33
0.0
  0
SOLID
  5
49C7
330
47B3
100
AcDbEntity
  8
标注
 62
     0
100
AcDbTrace
 10
325.6164468469474
 20
826.1944965672823
 30
0.0
 11
325.6164468469474
 21
823.5278299006155
 31
0.0
 12
317.6164468469474
 22
824.8611632339487
 32
0.0
 13
317.6164468469474
 23
824.8611632339487
 33
0.0
  0
MTEXT
  5
49C8
330
47B3
100
AcDbEntity
  8
标注
 62
     0
100
AcDbMText
 10
583.7664468469478
 20
837.1149149392694
 30
0.0
 40
16.0
 41
0.0
 46
0.0
 71
     5
 72
     1
  1
{\fArial|b0|i0|c0|p34;532.3 [21]}
 73
     1
 44
1.0
  0
POINT
  5
49C9
330
47B3
100
AcDbEntity
  8
Defpoints
 62
     0
100
AcDbPoint
 10
849.9164468469485
 20
783.4999999999999
 30
0.0
  0
POINT
  5
49CA
330
47B3
100
AcDbEntity
  8
Defpoints
 62
     0
100
AcDbPoint
 10
317.6164468469474
 20
797.0
 30
0.0
  0
POINT
  5
49CB
330
47B3
100
AcDbEntity
  8
Defpoints
 62
     0
100
AcDbPoint
 10
317.6164468469474
 20
824.8611632339487
 30
0.0
  0
ENDBLK
  5
47BE
330
47B3
100
AcDbEntity
  8
0
100
AcDbBlockEnd
  0
BLOCK
  5
47C9
330
47BF
100
AcDbEntity
  8
0
100
AcDbBlockBegin
  2
*D6
 70
     1
 10
0.0
 20
0.0
 30
0.0
  3
*D6
  1

  0
LINE
  5
49CC
330
47BF
100
AcDbEntity
  8
标注
 62
     0
370
    -2
100
AcDbLine
 10
311.5
 20
780.6499759392792
 30
0.0
 11
258.2877399689497
 21
780.6499759392792
 31
0.0
  0
LINE
  5
49CD
330
47BF
100
AcDbEntity
  8
标注
 62
     0
370
    -2
100
AcDbLine
 10
306.5
 20
315.3499759392805
 30
0.0
 11
258.2877399689496
 21
315.3499759392805
 31
0.0
  0
LINE
  5
49CE
330
47BF
100
AcDbEntity
  8
标注
 62
     0
370
    -2
100
AcDbLine
 10
262.0377399689497
 20
772.6499759392792
 30
0.0
 11
262.0377399689496
 21
323.3499759392805
 31
0.0
  0
SOLID
  5
49CF
330
47BF
100
AcDbEntity
  8
标注
 62
     0
100
AcDbTrace
 10
260.7044066356164
 20
772.6499759392792
 30
0.0
 11
263.371073302283
 21
772.6499759392792
 31
0.0
 12
262.0377399689497
 22
780.6499759392792
 32
0.0
 13
262.0377399689497
 23
780.6499759392792
 33
0.0
  0
SOLID
  5
49D0
330
47BF
100
AcDbEntity
  8
标注
 62
     0
100
AcDbTrace
 10
260.7044066356163
 20
323.3499759392805
 30
0.0
 11
263.3710733022829
 21
323.3499759392805
 31
0.0
 12
262.0377399689496
 22
315.3499759392805
 32
0.0
 13
262.0377399689496
 23
315.3499759392805
 33
0.0
  0
MTEXT
  5
49D1
330
47BF
100
AcDbEntity
  8
标注
 62
     0
100
AcDbMText
 10
249.6803047711324
 20
547.9999759392797
 30
0.0
 40
16.0
 41
0.0
 46
0.0
 71
     5
 72
     1
  1
{\fArial|b0|i0|c0|p34;465.3 [18 3/8]}
 11
0.0000000000000001
 21
1.0
 31
0.0
 73
     1
 44
1.0
  0
POINT
  5
49D2
330
47BF
100
AcDbEntity
  8
Defpoints
 62
     0
100
AcDbPoint
 10
311.5
 20
780.6499759392792
 30
0.0
  0
POINT
  5
49D3
330
47BF
100
AcDbEntity
  8
Defpoints
 62
     0
100
AcDbPoint
 10
306.5
 20
315.3499759392805
 30
0.0
  0
POINT
  5
49D4
330
47BF
100
AcDbEntity
  8
Defpoints
 62
     0
100
AcDbPoint
 10
262.0377399689496
 20
315.3499759392805
 30
0.0
  0
ENDBLK
  5
47CA
330
47BF
100
AcDbEntity
  8
0
100
AcDbBlockEnd
  0
BLOCK
  5
48AA
330
489E
100
AcDbEntity
  8
0
100
AcDbBlockBegin
  2
*D7
 70
     1
 10
0.0
 20
0.0
 30
0.0
  3
*D7
  1

  0
LINE
  5
49D5
330
489E
100
AcDbEntity
  8
标注
 62
     0
370
    -2
100
AcDbLine
 10
849.9164468469437
 20
508.999975939307
 30
0.0
 11
849.9164468469437
 21
482.7499999999999
 31
0.0
  0
LINE
  5
49D6
330
489E
100
AcDbEntity
  8
标注
 62
     0
370
    -2
100
AcDbLine
 10
856.2664468469458
 20
508.9999759392997
 30
0.0
 11
856.2664468469458
 21
482.7499999999999
 31
0.0
  0
LINE
  5
49D7
330
489E
100
AcDbEntity
  8
标注
 62
     0
370
    -2
100
AcDbLine
 10
864.2664468469458
 20
486.5
 30
0.0
 11
872.2664468469458
 21
486.5
 31
0.0
  0
LINE
  5
49D8
330
489E
100
AcDbEntity
  8
标注
 62
     0
370
    -2
100
AcDbLine
 10
841.9164468469437
 20
486.5
 30
0.0
 11
737.2585266030014
 21
486.5
 31
0.0
  0
LINE
  5
49D9
330
489E
100
AcDbEntity
  8
标注
 62
     0
370
    -2
100
AcDbLine
 10
856.2664468469458
 20
486.5
 30
0.0
 11
849.9164468469437
 21
486.5
 31
0.0
  0
SOLID
  5
49DA
330
489E
100
AcDbEntity
  8
标注
 62
     0
100
AcDbTrace
 10
864.2664468469458
 20
487.8333333333332
 30
0.0
 11
864.2664468469458
 21
485.1666666666667
 31
0.0
 12
856.2664468469458
 22
486.5
 32
0.0
 13
856.2664468469458
 23
486.5
 33
0.0
  0
SOLID
  5
49DB
330
489E
100
AcDbEntity
  8
标注
 62
     0
100
AcDbTrace
 10
841.9164468469437
 20
487.8333333333332
 30
0.0
 11
841.9164468469437
 21
485.1666666666667
 31
0.0
 12
849.9164468469437
 22
486.5
 32
0.0
 13
849.9164468469437
 23
486.5
 33
0.0
  0
MTEXT
  5
49DC
330
489E
100
AcDbEntity
  8
标注
 62
     0
100
AcDbMText
 10
778.5
 20
498.8574351978171
 30
0.0
 40
16.0
 41
0.0
 46
0.0
 71
     5
 72
     1
  1
{\fArial|b0|i0|c0|p34;6.4 [1/4]}
 73
     1
 44
1.0
  0
POINT
  5
49DD
330
489E
100
AcDbEntity
  8
Defpoints
 62
     0
100
AcDbPoint
 10
849.9164468469437
 20
508.999975939307
 30
0.0
  0
POINT
  5
49DE
330
489E
100
AcDbEntity
  8
Defpoints
 62
     0
100
AcDbPoint
 10
856.2664468469458
 20
508.9999759392997
 30
0.0
  0
POINT
  5
49DF
330
489E
100
AcDbEntity
  8
Defpoints
 62
     0
100
AcDbPoint
 10
856.2664468469458
 20
486.5
 30
0.0
  0
ENDBLK
  5
48AB
330
489E
100
AcDbEntity
  8
0
100
AcDbBlockEnd
  0
BLOCK
  5
48B8
330
48AC
100
AcDbEntity
  8
0
100
AcDbBlockBegin
  2
*D8
 70
     1
 10
0.0
 20
0.0
 30
0.0
  3
*D8
  1

  0
LINE
  5
49E0
330
48AC
100
AcDbEntity
  8
标注
 62
     0
370
    -2
100
AcDbLine
 10
856.2664468469458
 20
508.9999759392997
 30
0.0
 11
856.2664468469458
 21
455.25
 31
0.0
  0
LINE
  5
49E1
330
48AC
100
AcDbEntity
  8
标注
 62
     0
370
    -2
100
AcDbLine
 10
862.6164468469481
 20
508.999975939307
 30
0.0
 11
862.6164468469481
 21
455.25
 31
0.0
  0
LINE
  5
49E2
330
48AC
100
AcDbEntity
  8
标注
 62
     0
370
    -2
100
AcDbLine
 10
870.6164468469481
 20
459.0
 30
0.0
 11
878.6164468469481
 21
459.0
 31
0.0
  0
LINE
  5
49E3
330
48AC
100
AcDbEntity
  8
标注
 62
     0
370
    -2
100
AcDbLine
 10
848.2664468469458
 20
459.0
 30
0.0
 11
742.7585266030014
 21
459.0
 31
0.0
  0
LINE
  5
49E4
330
48AC
100
AcDbEntity
  8
标注
 62
     0
370
    -2
100
AcDbLine
 10
862.6164468469481
 20
459.0
 30
0.0
 11
856.2664468469458
 21
459.0
 31
0.0
  0
SOLID
  5
49E5
330
48AC
100
AcDbEntity
  8
标注
 62
     0
100
AcDbTrace
 10
870.6164468469481
 20
460.3333333333332
 30
0.0
 11
870.6164468469481
 21
457.6666666666667
 31
0.0
 12
862.6164468469481
 22
459.0
 32
0.0
 13
862.6164468469481
 23
459.0
 33
0.0
  0
SOLID
  5
49E6
330
48AC
100
AcDbEntity
  8
标注
 62
     0
100
AcDbTrace
 10
848.2664468469458
 20
460.3333333333332
 30
0.0
 11
848.2664468469458
 21
457.6666666666667
 31
0.0
 12
856.2664468469458
 22
459.0
 32
0.0
 13
856.2664468469458
 23
459.0
 33
0.0
  0
MTEXT
  5
49E7
330
48AC
100
AcDbEntity
  8
标注
 62
     0
100
AcDbMText
 10
784.0
 20
471.3574351978171
 30
0.0
 40
16.0
 41
0.0
 46
0.0
 71
     5
 72
     1
  1
{\fArial|b0|i0|c0|p34;6.4 [1/4]}
 73
     1
 44
1.0
  0
POINT
  5
49E8
330
48AC
100
AcDbEntity
  8
Defpoints
 62
     0
100
AcDbPoint
 10
856.2664468469458
 20
508.9999759392997
 30
0.0
  0
POINT
  5
49E9
330
48AC
100
AcDbEntity
  8
Defpoints
 62
     0
100
AcDbPoint
 10
862.6164468469481
 20
508.999975939307
 30
0.0
  0
POINT
  5
49EA
330
48AC
100
AcDbEntity
  8
Defpoints
 62
     0
100
AcDbPoint
 10
862.6164468469481
 20
459.0
 30
0.0
  0
ENDBLK
  5
48B9
330
48AC
100
AcDbEntity
  8
0
100
AcDbBlockEnd
  0
ENDSEC
  0
SECTION
  2
ENTITIES
  0
LWPOLYLINE
  5
46B0
330
1F
100
AcDbEntity
  8
虚线
 48
2.0
100
AcDbPolyline
 90
        8
 70
     1
 43
0.0
 10
316.8084502405854
 20
605.9055586864488
 42
0.0596027624984639
 10
317.7796741315906
 20
403.9758632116209
 42
0.3534680416605499
 10
408.2369365850063
 20
316.717518297497
 42
0.0439672072615888
 10
759.2959571088904
 20
316.7175182974897
 42
0.3534680416605511
 10
849.7532195623062
 20
403.9758632116209
 42
0.0596027624984638
 10
850.7244434533095
 20
605.9055586864415
 42
0.3488288713530629
 10
674.78244338677
 20
781.8056681520758
 42
0.0570702731901691
 10
492.7504503071268
 20
781.8056681520758
 42
0.3488288713530622
  0
LWPOLYLINE
  5
46B1
330
1F
100
AcDbEntity
  8
虚线
 48
2.0
100
AcDbPolyline
 90
        8
 70
     1
 43
0.0
 10
323.117048215232
 20
605.181616980044
 42
0.0596027624984639
 10
324.0810164924642
 20
404.7604551125841
 42
0.3534680600522435
 10
408.7942488808094
 20
323.0430145630017
 42
0.0439672064921217
 10
758.7386509138087
 20
323.0430151005057
 42
0.3534680416605511
 10
843.4518772014326
 20
404.7604551125841
 42
0.0596027624984638
 10
844.4158454786631
 20
605.1816169800368
 42
0.3488288713530629
 10
674.0600039142354
 20
775.4968979701372
 42
0.0570702731901691
 10
493.4728897796613
 20
775.4968979701372
 42
0.3488288713530622
  0
LWPOLYLINE
  5
46B2
330
1F
100
AcDbEntity
  8
粗实线
100
AcDbPolyline
 90
        8
 70
     1
 43
0.0
 10
310.4998522659371
 20
606.6295003928535
 42
0.0596027624984639
 10
311.478331770717
 20
403.1912713106503
 42
0.3534680416605499
 10
407.6796303899246
 20
310.392021494481
 42
0.0439672072615888
 10
759.8532633039723
 20
310.392021494481
 42
0.3534680416605511
 10
856.0545619231797
 20
403.1912713106576
 42
0.0596027624984638
 10
857.0330414279579
 20
606.6295003928462
 42
0.3488288713530629
 10
675.5048828593043
 20
788.1144383340142
 42
0.0570702731901691
 10
492.0280108345923
 20
788.1144383340142
 42
0.3488288713530622
  0
HATCH
  5
46B5
330
1F
100
AcDbEntity
  8
剖切线
100
AcDbHatch
 10
0.0
 20
0.0
 30
0.0
210
0.0
220
0.0
230
1.0
  2
ANSI37
 70
     0
 71
     0
 91
        2
 92
        7
 72
     0
 73
     1
 93
        6
 10
582.5827667731427
 20
674.7531604429387
 10
580.853038773137
 20
674.7531604429387
 10
580.853038773137
 20
656.4786331420037
 10
579.5224787731348
 20
656.4786331420037
 10
579.5224787731348
 20
655.1480731420014
 10
582.5827667731427
 20
655.1480731420014
 97
        0
 92
        7
 72
     0
 73
     1
 93
        6
 10
592.8280787731345
 20
674.7531604429387
 10
591.0983507731434
 20
674.7531604429387
 10
591.0983507731434
 20
655.1480731420014
 10
594.1586387731367
 20
655.1480731420014
 10
594.1586387731367
 20
656.4786331420037
 10
592.8280787731345
 20
656.4786331420037
 97
        0
 75
     0
 76
     1
 52
0.0
 41
0.2661120000000001
 77
     0
 78
     2
 53
45.0
 43
2249.13903052131
 44
-2910.856734202534
 45
-0.5974384792207275
 46
0.5974384792243655
 79
     0
 53
135.0
 43
2249.13903052131
 44
-2910.856734202534
 45
-0.5974384792207275
 46
-0.5974384792243655
 79
     0
 47
0.0875911827022285
 98
        2
 10
582.0498129064727
 20
668.4418120106129
 10
591.9636464280557
 20
669.2576287863484
  0
HATCH
  5
46B6
330
1F
100
AcDbEntity
  8
剖切线
100
AcDbHatch
 10
0.0
 20
0.0
 30
0.0
210
0.0
220
0.0
230
1.0
  2
ANSI31
 70
     0
 71
     1
 91
        1
 92
        5
 93
        8
 72
     1
 10
580.853038773137
 20
656.478633141989
 11
580.8530387731373
 21
674.7531604429242
 72
     1
 10
580.8530387731373
 20
674.7531604429242
 11
592.8280787731382
 21
674.7531604429241
 72
     1
 10
592.8280787731382
 20
674.7531604429241
 11
592.8280787731382
 21
656.4786331419892
 72
     1
 10
592.8280787731382
 20
656.4786331419892
 11
626.5498205319127
 21
656.4786331419892
 72
     1
 10
626.5498205319127
 20
656.4786331419892
 11
626.5498205319127
 21
689.7426331419847
 72
     1
 10
626.5498205319127
 20
689.7426331419847
 11
528.9825315522431
 21
689.7426331419847
 72
     4
 94
        3
 73
     0
 74
     0
 95
       11
 96
        7
 40
0.0
 40
0.0
 40
0.0
 40
0.0
 40
9.772388244958774
 40
19.74420542844704
 40
28.87401972479574
 40
35.16651116270526
 40
35.16651116270526
 40
35.16651116270526
 40
35.16651116270526
 10
528.9825315522429
 20
689.7426331419847
 10
530.9352257664272
 20
686.7274543784597
 10
534.8804635872515
 20
680.6355649223448
 10
527.2397929000876
 20
671.5180549165441
 10
533.207402090391
 20
662.9758953952825
 10
530.2068101617456
 20
658.3614030695436
 10
528.9825315522429
 20
656.4786331419891
 72
     1
 10
528.9825315522428
 20
656.4786331419891
 11
580.853038773137
 21
656.478633141989
 97
        8
330
46D2
330
46C8
330
46B9
330
46BC
330
46BB
330
46E8
330
46B7
330
46D4
 75
     0
 76
     1
 52
0.0
 41
1.1088
 77
     0
 78
     1
 53
44.9999999999263
 43
-10564.66144849748
 44
25481.40730672878
 45
-2.489326996761519
 46
2.489326996757882
 79
     0
 47
0.5147252568016311
 98
        1
 10
550.8271109779307
 20
666.6342537358578
  0
LINE
  5
46B7
102
{ACAD_REACTORS
330
46B6
102
}
330
1F
100
AcDbEntity
  8
粗实线
100
AcDbLine
 10
528.9825315522429
 20
656.4786331419891
 30
0.0
 11
580.853038773137
 21
656.4786331419891
 31
0.0
  0
HATCH
  5
46B8
330
1F
100
AcDbEntity
  8
剖切线
100
AcDbHatch
 10
0.0
 20
0.0
 30
0.0
210
0.0
220
0.0
230
1.0
  2
ANSI31
 70
     0
 71
     0
 91
        1
 92
        7
 72
     1
 73
     1
 93
        9
 10
613.0203701181381
 20
656.4786331419891
 42
0.0
 10
611.0734758220023
 20
656.4786331419891
 42
0.0
 10
611.0734758220059
 20
655.2487891419878
 42
0.0
 10
630.2421449104586
 20
655.2466331419855
 42
-0.4014906669060267
 10
632.8576531545586
 20
652.7428286981157
 42
0.0
 10
634.5981531857651
 20
612.9282516089733
 42
0.0
 10
635.8203706896164
 20
613.1297623800929
 42
0.0
 10
634.0884805635505
 20
652.7965677833563
 42
0.4014906669060267
 10
630.2421449104586
 20
656.4786331419891
 42
0.0
 97
        0
 75
     0
 76
     1
 52
90.0
 41
0.7700000000000001
 77
     0
 78
     1
 53
135.0000000001474
 43
-15717.43368454712
 44
26380.31556447964
 45
-1.728699303304893
 46
-1.72869930330853
 79
     0
 47
0.1745883849316779
 98
        1
 10
623.8602049924992
 20
656.1688324702409
  0
LINE
  5
46B9
102
{ACAD_REACTORS
330
46B6
102
}
330
1F
100
AcDbEntity
  8
粗实线
100
AcDbLine
 10
592.8280787731382
 20
656.4786331419891
 30
0.0
 11
626.5498205319127
 21
656.4786331419891
 31
0.0
  0
LINE
  5
46BA
330
1F
100
AcDbEntity
  8
粗实线
100
AcDbLine
 10
591.0983507731434
 20
655.148073141987
 30
0.0
 11
594.1586387731367
 21
655.148073141987
 31
0.0
  0
LINE
  5
46BB
102
{ACAD_REACTORS
330
46B6
102
}
330
1F
100
AcDbEntity
  8
粗实线
100
AcDbLine
 10
528.9825315522429
 20
689.7426331419847
 30
0.0
 11
626.5498205319127
 21
689.7426331419847
 31
0.0
  0
LINE
  5
46BC
102
{ACAD_REACTORS
330
46B6
102
}
330
1F
100
AcDbEntity
  8
粗实线
100
AcDbLine
 10
626.5498205319127
 20
689.7426331419847
 30
0.0
 11
626.5498205319127
 21
656.4786331419891
 31
0.0
  0
HATCH
  5
46BD
330
1F
100
AcDbEntity
  8
剖切线
100
AcDbHatch
 10
0.0
 20
0.0
 30
0.0
210
0.0
220
0.0
230
1.0
  2
ANSI31
 70
     0
 71
     0
 91
        2
 92
        7
 72
     0
 73
     1
 93
        6
 10
579.4892147731407
 20
645.0655431598134
 10
579.4892147731371
 20
639.7433031598191
 10
581.1856787731376
 20
639.7433031598191
 10
581.1856787731376
 20
641.3399751598189
 10
586.8405587731395
 20
641.3399751598189
 10
586.8405587731395
 20
645.0655431598134
 97
        0
 92
        7
 72
     0
 73
     1
 93
        6
 10
586.8405587731395
 20
645.0655431598134
 10
586.8405587731395
 20
641.3399751598189
 10
592.4954387731341
 20
641.3399751598189
 10
592.4954387731341
 20
639.7433031598191
 10
594.1919027731346
 20
639.7433031598191
 10
594.1919027731346
 20
645.0655431598134
 97
        0
 75
     0
 76
     1
 52
90.0
 41
0.6652800000000002
 77
     0
 78
     1
 53
135.0
 43
3827.357311819172
 44
2914.877480548937
 45
-1.493596198055456
 46
-1.493596198055456
 79
     0
 47
0.1137768334985027
 98
        2
 10
581.7528585761683
 20
644.8531811014836
 10
589.1708178390799
 20
644.0956763834547
  0
LINE
  5
46BE
330
1F
100
AcDbEntity
  8
粗实线
 48
0.1
100
AcDbLine
 10
594.1919027731346
 20
639.7433031598048
 30
0.0
 11
579.4892147731371
 21
639.7433031598048
 31
0.0
  0
LINE
  5
46BF
330
1F
100
AcDbEntity
  8
粗实线
 48
0.1
100
AcDbLine
 10
592.4954387731377
 20
641.3399751598046
 30
0.0
 11
581.1856787731376
 21
641.3399751598046
 31
0.0
  0
LINE
  5
46C0
330
1F
100
AcDbEntity
  8
粗实线
 48
0.1
100
AcDbLine
 10
594.1919027731346
 20
645.0655431598134
 30
0.0
 11
579.4892147731371
 21
645.0655431598134
 31
0.0
  0
LINE
  5
46C1
330
1F
100
AcDbEntity
  8
粗实线
 48
0.1
100
AcDbLine
 10
590.1669587731412
 20
674.3378631598025
 30
0.0
 11
583.5141587731341
 21
674.3378631598025
 31
0.0
  0
LINE
  5
46C2
330
1F
100
AcDbEntity
  8
粗实线
 48
0.1
100
AcDbLine
 10
590.832238773135
 20
673.6725831598159
 30
0.0
 11
582.8488787731402
 21
673.6725831598159
 31
0.0
  0
LINE
  5
46C3
330
1F
100
AcDbEntity
  8
中心线
 48
0.1
100
AcDbLine
 10
586.8405587731358
 20
676.6448079841502
 30
0.0
 11
586.8405587731358
 21
636.6905578561564
 31
0.0
  0
LINE
  5
46C4
330
1F
100
AcDbEntity
  8
粗实线
 48
0.1
100
AcDbLine
 10
582.8488787731402
 20
673.6725831598159
 30
0.0
 11
582.8488787731402
 21
645.0655431598134
 31
0.0
  0
LINE
  5
46C5
330
1F
100
AcDbEntity
  8
细实线
 48
0.1
100
AcDbLine
 10
583.5141587731341
 20
674.3378631598025
 30
0.0
 11
583.5141587731341
 21
645.0655431598134
 31
0.0
  0
LINE
  5
46C6
330
1F
100
AcDbEntity
  8
粗实线
 48
0.1
100
AcDbLine
 10
590.832238773135
 20
673.6725831598159
 30
0.0
 11
590.832238773135
 21
645.0655431598134
 31
0.0
  0
LINE
  5
46C7
330
1F
100
AcDbEntity
  8
粗实线
 48
0.1
100
AcDbLine
 10
591.0983507731434
 20
674.7531604429241
 30
0.0
 11
591.0983507731434
 21
655.148073141987
 31
0.0
  0
LINE
  5
46C8
102
{ACAD_REACTORS
330
46B6
102
}
330
1F
100
AcDbEntity
  8
粗实线
 48
0.1
100
AcDbLine
 10
592.8280787731382
 20
674.7531604429241
 30
0.0
 11
592.8280787731382
 21
656.4786331419891
 31
0.0
  0
LINE
  5
46C9
330
1F
100
AcDbEntity
  8
粗实线
 48
0.1
100
AcDbLine
 10
594.1586387731367
 20
656.4786331419891
 30
0.0
 11
594.1586387731367
 21
655.148073141987
 31
0.0
  0
LINE
  5
46CA
330
1F
100
AcDbEntity
  8
细实线
 48
0.1
100
AcDbLine
 10
590.1669587731412
 20
674.3378631598025
 30
0.0
 11
590.1669587731412
 21
645.0655431598134
 31
0.0
  0
LINE
  5
46CB
330
1F
100
AcDbEntity
  8
粗实线
 48
0.1
100
AcDbLine
 10
581.1856787731376
 20
641.3399751598046
 30
0.0
 11
581.1856787731376
 21
639.7433031598048
 31
0.0
  0
LINE
  5
46CC
330
1F
100
AcDbEntity
  8
粗实线
 48
0.1
100
AcDbLine
 10
592.4954387731377
 20
641.3399751598046
 30
0.0
 11
592.4954387731377
 21
639.7433031598048
 31
0.0
  0
LINE
  5
46CD
330
1F
100
AcDbEntity
  8
粗实线
 48
0.1
100
AcDbLine
 10
579.4892147731371
 20
645.0655431598134
 30
0.0
 11
579.4892147731371
 21
639.7433031598048
 31
0.0
  0
LINE
  5
46CE
330
1F
100
AcDbEntity
  8
粗实线
 48
0.1
100
AcDbLine
 10
594.1919027731346
 20
645.0655431598134
 30
0.0
 11
594.1919027731346
 21
639.7433031598048
 31
0.0
  0
LINE
  5
46CF
330
1F
100
AcDbEntity
  8
粗实线
 48
0.1
100
AcDbLine
 10
583.5141587731341
 20
674.3378631598025
 30
0.0
 11
582.8488787731402
 21
673.6725831598159
 31
0.0
  0
LINE
  5
46D0
330
1F
100
AcDbEntity
  8
粗实线
 48
0.1
100
AcDbLine
 10
590.1669587731412
 20
674.3378631598025
 30
0.0
 11
590.832238773135
 21
673.6725831598159
 31
0.0
  0
LINE
  5
46D1
330
1F
100
AcDbEntity
  8
粗实线
100
AcDbLine
 10
582.5827667731427
 20
655.148073141987
 30
0.0
 11
579.5224787731348
 21
655.148073141987
 31
0.0
  0
LINE
  5
46D2
102
{ACAD_REACTORS
330
46B6
102
}
330
1F
100
AcDbEntity
  8
粗实线
 48
0.1
100
AcDbLine
 10
580.853038773137
 20
674.7531604429241
 30
0.0
 11
592.8280787731382
 21
674.7531604429241
 31
0.0
  0
LINE
  5
46D3
330
1F
100
AcDbEntity
  8
粗实线
 48
0.1
100
AcDbLine
 10
582.5827667731427
 20
674.7531604429241
 30
0.0
 11
582.5827667731427
 21
655.148073141987
 31
0.0
  0
LINE
  5
46D4
102
{ACAD_REACTORS
330
46B6
102
}
330
1F
100
AcDbEntity
  8
粗实线
 48
0.1
100
AcDbLine
 10
580.853038773137
 20
674.7531604429241
 30
0.0
 11
580.853038773137
 21
656.4786331419891
 31
0.0
  0
LINE
  5
46D5
330
1F
100
AcDbEntity
  8
粗实线
 48
0.1
100
AcDbLine
 10
579.5224787731348
 20
656.4786331419891
 30
0.0
 11
579.5224787731348
 21
655.148073141987
 31
0.0
  0
LINE
  5
46D6
330
1F
100
AcDbEntity
  8
中心线
 48
0.1
100
AcDbLine
 10
586.8405587731358
 20
637.4316707880062
 30
0.0
 11
586.8405587731358
 21
663.2068437204725
 31
0.0
  0
HATCH
  5
46D7
330
1F
100
AcDbEntity
  8
剖切线
100
AcDbHatch
 10
0.0
 20
0.0
 30
0.0
210
0.0
220
0.0
230
1.0
  2
ANSI31
 70
     0
 71
     0
 91
        1
 92
        7
 72
     1
 73
     1
 93
        8
 10
562.239365227324
 20
648.8293713199818
 42
-0.3003703345698273
 10
557.5899465332077
 20
652.4050710572337
 42
0.0
 10
556.2676508009571
 20
656.2452967063437
 42
0.0
 10
553.7515124090641
 20
655.378920779156
 42
0.0
 10
555.0738081413073
 20
651.5386951300607
 42
0.3003703345697881
 10
562.0479361824837
 20
646.1751455241609
 42
0.0070565129482686
 10
574.8700930173726
 20
645.4321060274669
 42
0.0
 10
574.9165521495997
 20
648.093747929961
 42
-0.0070177978545288
 97
        0
 75
     0
 76
     1
 52
-0.9999999998765462
 41
0.6652800000000002
 77
     0
 78
     1
 53
43.99999999980777
 43
2801.088762339008
 44
-2762.509146838842
 45
-1.467301868218783
 46
1.519435564023296
 79
     0
 47
0.1104702278856199
 98
        1
 10
567.1874284349214
 20
648.0179831194255
  0
LINE
  5
46D8
330
1F
100
AcDbEntity
  8
粗实线
100
AcDbLine
 10
574.8700930173726
 20
645.4321060274524
 30
0.0
 11
574.916552149596
 21
648.0937479299464
 31
0.0
  0
LINE
  5
46D9
330
1F
100
AcDbEntity
  8
粗实线
100
AcDbLine
 10
598.8165253041842
 20
645.0141194970929
 30
0.0
 11
598.8629844364041
 21
647.6757613995869
 31
0.0
  0
ARC
  5
46DA
330
1F
100
AcDbEntity
  8
粗实线
100
AcDbCircle
 10
594.7823028500825
 20
1100.047756609216
 30
0.0
 40
452.3904000000001
100
AcDbArc
 50
265.8748354479636
 51
268.4884423862466
  0
ARC
  5
46DB
330
1F
100
AcDbEntity
  8
粗实线
100
AcDbCircle
 10
594.7823028500825
 20
1100.047756609216
 30
0.0
 40
452.3904000000001
100
AcDbArc
 50
269.4997133532673
 51
272.0817910569185
  0
ARC
  5
46DC
330
1F
100
AcDbEntity
  8
粗实线
100
AcDbCircle
 10
562.622223317001
 20
654.1378229115943
 30
0.0
 40
5.322240000000001
100
AcDbArc
 50
198.9999999998325
 51
265.8748354479636
  0
ARC
  5
46DD
330
1F
100
AcDbEntity
  8
粗实线
100
AcDbCircle
 10
562.622223317001
 20
654.1378229115943
 30
0.0
 40
7.983360000000002
100
AcDbArc
 50
198.9999999997986
 51
265.8748354479636
  0
ARC
  5
46DE
330
1F
100
AcDbEntity
  8
粗实线
100
AcDbCircle
 10
594.7823028500825
 20
1100.047756609216
 30
0.0
 40
455.0515200000001
100
AcDbArc
 50
265.8748354479636
 51
272.0817910569185
  0
LINE
  5
46DF
330
1F
100
AcDbEntity
  8
粗实线
100
AcDbLine
 10
556.2676508009571
 20
656.2452967063291
 30
0.0
 11
557.5899465332077
 21
652.4050710572192
 31
0.0
  0
LINE
  5
46E0
330
1F
100
AcDbEntity
  8
粗实线
100
AcDbLine
 10
553.7515124090605
 20
655.3789207791269
 30
0.0
 11
555.0738081413073
 21
651.5386951300317
 31
0.0
  0
LINE
  5
46E1
330
1F
100
AcDbEntity
  8
粗实线
100
AcDbLine
 10
553.7515124090605
 20
655.3789207791269
 30
0.0
 11
556.2676508009571
 21
656.2452967063291
 31
0.0
  0
ARC
  5
46E2
330
1F
100
AcDbEntity
  8
粗实线
100
AcDbCircle
 10
611.3607590709507
 20
653.2870886055024
 30
0.0
 40
5.322240000000001
100
AcDbArc
 50
272.1251645521351
 51
339.0000000002068
  0
ARC
  5
46E3
330
1F
100
AcDbEntity
  8
粗实线
100
AcDbCircle
 10
611.3607590709507
 20
653.2870886055024
 30
0.0
 40
7.983360000000002
100
AcDbArc
 50
272.1251645521351
 51
339.0000000002068
  0
LINE
  5
46E4
330
1F
100
AcDbEntity
  8
粗实线
100
AcDbLine
 10
617.7850103278615
 20
655.171507201565
 30
0.0
 11
616.3294981600738
 21
651.3797683697194
 31
0.0
  0
LINE
  5
46E5
330
1F
100
AcDbEntity
  8
粗实线
100
AcDbLine
 10
620.2693798724249
 20
654.2178470836661
 30
0.0
 11
618.8138677046335
 21
650.426108251835
 31
0.0
  0
LINE
  5
46E6
330
1F
100
AcDbEntity
  8
粗实线
100
AcDbLine
 10
620.2693798724249
 20
654.2178470836661
 30
0.0
 11
617.7850103278615
 21
655.171507201565
 31
0.0
  0
HATCH
  5
46E7
330
1F
100
AcDbEntity
  8
剖切线
100
AcDbHatch
 10
0.0
 20
0.0
 30
0.0
210
0.0
220
0.0
230
1.0
  2
ANSI31
 70
     0
 71
     0
 91
        1
 92
        7
 72
     1
 73
     1
 93
        8
 10
598.8629844364078
 20
647.6757613995869
 42
0.0070177978545289
 10
611.5581216450118
 20
647.96850922452
 42
0.3003703345697906
 10
616.3294981600775
 20
651.3797683697194
 42
0.0
 10
617.7850103278615
 20
655.1715072015795
 42
0.0
 10
620.2693798724249
 20
654.2178470836806
 42
0.0
 10
618.8138677046262
 20
650.4261082518497
 42
-0.3003703345697731
 10
611.6568029320405
 20
645.3092195340287
 42
-0.0070565129482688
 10
598.8165253041842
 20
645.0141194970783
 42
0.0
 97
        0
 75
     0
 76
     1
 52
-0.9999999998765462
 41
0.6652800000000002
 77
     0
 78
     1
 53
43.99999999980777
 43
2801.088762339008
 44
-2762.509146838842
 45
-1.467301868218783
 46
1.519435564023296
 79
     0
 47
0.1104702278856199
 98
        1
 10
606.5847556240004
 20
647.3303002153406
  0
SPLINE
  5
46E8
102
{ACAD_REACTORS
330
46B6
102
}
330
1F
100
AcDbEntity
  8
细实线
100
AcDbSpline
210
0.0
220
0.0
230
1.0
 70
     8
 71
     3
 72
    11
 73
     7
 74
     5
 42
0.0000000001
 43
0.0000000001
 44
0.0000000001
 40
0.0
 40
0.0
 40
0.0
 40
0.0
 40
9.772388244958669
 40
19.74420542844701
 40
28.87401972479568
 40
35.1665111627052
 40
35.1665111627052
 40
35.1665111627052
 40
35.1665111627052
 10
528.9825315522429
 20
689.7426331419847
 30
0.0
 10
530.9352257664271
 20
686.7274543784597
 30
0.0
 10
534.8804635872514
 20
680.6355649223448
 30
0.0
 10
527.2397929000876
 20
671.5180549165441
 30
0.0
 10
533.2074020903909
 20
662.9758953952825
 30
0.0
 10
530.2068101617456
 20
658.3614030695437
 30
0.0
 10
528.9825315522429
 20
656.4786331419891
 30
0.0
 11
528.9825315522429
 21
689.7426331419847
 31
0.0
 11
532.5941994613422
 21
680.6621360782448
 31
0.0
 11
529.6178502253752
 21
671.1448631933016
 31
0.0
 11
531.5525051861986
 21
662.2223848790454
 31
0.0
 11
528.9825315522429
 21
656.4786331419891
 31
0.0
  0
LINE
  5
46E9
330
1F
100
AcDbEntity
  8
粗实线
 62
     0
100
AcDbLine
 10
635.8203706896237
 20
613.1297623800929
 30
0.0
 11
634.0884805635505
 21
652.7965677833563
 31
0.0
  0
LINE
  5
46EA
330
1F
100
AcDbEntity
  8
粗实线
 62
     0
100
AcDbLine
 10
634.5981531857651
 20
612.9282516089733
 30
0.0
 11
632.8576531545586
 21
652.7428286981157
 31
0.0
  0
LINE
  5
46EB
330
1F
100
AcDbEntity
  8
粗实线
 62
     0
100
AcDbLine
 10
613.0203701181381
 20
656.4786331419891
 30
0.0
 11
630.2421449104586
 21
656.4786331419891
 31
0.0
  0
ARC
  5
46EC
330
1F
100
AcDbEntity
  8
粗实线
 62
     0
100
AcDbCircle
 10
630.2421449104586
 20
652.6286331419832
 30
0.0
 40
3.850000000000001
100
AcDbArc
 50
2.50000000017471
 51
90.0
  0
ARC
  5
46ED
330
1F
100
AcDbEntity
  8
粗实线
 62
     0
100
AcDbCircle
 10
630.2421449104586
 20
652.6286331419832
 30
0.0
 40
2.618
100
AcDbArc
 50
2.50000000017471
 51
90.0
  0
LINE
  5
46EE
330
1F
100
AcDbEntity
  8
粗实线
 62
     0
100
AcDbLine
 10
611.0734758220023
 20
655.2487891420025
 30
0.0
 11
630.2421449104586
 21
655.2466331419855
 31
0.0
  0
LINE
  5
46EF
330
1F
100
AcDbEntity
  8
粗实线
 62
     0
100
AcDbLine
 10
630.2421449104586
 20
656.4786331419891
 30
0.0
 11
647.9741804713121
 21
656.4786331419891
 31
0.0
  0
LINE
  5
46F0
330
1F
100
AcDbEntity
  8
粗实线
100
AcDbLine
 10
611.0734758220023
 20
656.4786331419891
 30
0.0
 11
611.0734758220023
 21
655.2487891420025
 31
0.0
  0
LINE
  5
46F1
330
1F
100
AcDbEntity
  8
粗实线
100
AcDbLine
 10
632.8576531545586
 20
655.4538086453978
 30
0.0
 11
655.1211088490381
 21
675.926625320717
 31
0.0
  0
LINE
  5
46F2
330
1F
100
AcDbEntity
  8
粗实线
100
AcDbLine
 10
655.1211088490381
 20
675.926625320717
 30
0.0
 11
656.7741650909629
 21
675.926625320717
 31
0.0
  0
LINE
  5
46F3
330
1F
100
AcDbEntity
  8
粗实线
100
AcDbLine
 10
577.7661760420815
 20
689.7426331419847
 30
0.0
 11
567.3911681643913
 21
701.7227220391214
 31
0.0
  0
LINE
  5
46F4
330
1F
100
AcDbEntity
  8
粗实线
100
AcDbLine
 10
567.3911681643913
 20
701.7227220391214
 30
0.0
 11
563.9332684584331
 21
701.7227220391214
 31
0.0
  0
LINE
  5
46F5
330
1F
100
AcDbEntity
  8
粗实线
100
AcDbLine
 10
562.0479361826438
 20
646.1751455241465
 30
0.0
 11
551.959054702118
 21
633.1207101588224
 31
0.0
  0
LINE
  5
46F6
330
1F
100
AcDbEntity
  8
粗实线
100
AcDbLine
 10
551.959054702118
 20
633.1207101588224
 30
0.0
 11
547.2731784452735
 21
633.1207101588224
 31
0.0
  0
LINE
  5
46F7
330
1F
100
AcDbEntity
  8
粗实线
100
AcDbLine
 10
580.1099303912378
 20
640.3442129071772
 30
0.0
 11
581.0750756283742
 21
620.9530679643067
 31
0.0
  0
LINE
  5
46F8
330
1F
100
AcDbEntity
  8
粗实线
100
AcDbLine
 10
583.6699862056994
 20
620.9530679643067
 30
0.0
 11
581.0750756283742
 21
620.9530679643067
 31
0.0
  0
MTEXT
  5
46F9
330
1F
100
AcDbEntity
  8
粗实线
100
AcDbMText
 10
658.8764218154465
 20
680.2063708814237
 30
0.0
 40
6.160000000000001
 41
639.645506911315
 46
0.0
 71
     1
 72
     5
  1
{\fTahoma|b0|i0|c0|p34;SINK}
 73
     1
 44
1.0
  0
MTEXT
  5
46FA
330
1F
100
AcDbEntity
  8
粗实线
100
AcDbMText
 10
509.1523910811848
 20
705.8892547651485
 30
0.0
 40
6.160000000000001
 41
639.645506911315
 46
0.0
 71
     1
 72
     5
  1
{\fTahoma|b0|i0|c0|p34;COUNTERTOP}
 73
     1
 44
1.0
  0
MTEXT
  5
46FB
330
1F
100
AcDbEntity
  8
粗实线
100
AcDbMText
 10
505.5745860911592
 20
636.3653345663331
 30
0.0
 40
6.160000000000001
 41
639.645506911315
 46
0.0
 71
     1
 72
     5
  1
{\fTahoma|b0|i0|c0|p34;FASTENER}
 73
     1
 44
1.0
  0
MTEXT
  5
46FC
330
1F
100
AcDbEntity
  8
粗实线
100
AcDbMText
 10
584.8646326977213
 20
624.9806628171208
 30
0.0
 40
6.160000000000001
 41
639.645506911315
 46
0.0
 71
     1
 72
     5
  1
{\fTahoma|b0|i0|c0|p34;SCREWS}
 73
     1
 44
1.0
  0
SOLID
  5
46FE
330
1F
100
AcDbEntity
  8
粗实线
100
AcDbTrace
 10
470.8639369496686
 20
318.0854184402197
 30
0.0
 11
472.2664468469901
 21
311.999975939274
 31
0.0
 12
468.9660912681374
 22
317.3016075275154
 32
0.0
 13
468.9660912681374
 23
317.3016075275154
 33
0.0
1001
ACAD
1000
DSTYLE
1002
{
1070
    41
1040
8.0
1070
   147
1040
3.0
1070
    77
1070
     0
1002
}
  0
MTEXT
  5
46FF
330
1F
100
AcDbEntity
  8
粗实线
100
AcDbMText
 10
427.9423387312398
 20
340.1182527017009
 30
0.0
 40
5.600000000000001
 41
214.8192584769648
 46
0.0
 71
     1
 72
     5
  1
{\fTahoma|b0|i0|c0|p34;Use this line for FLUSH MOUNT CUT.}
  7
样式 8
 73
     1
 44
1.0
  0
LINE
  5
4700
330
1F
100
AcDbEntity
  8
0
100
AcDbLine
 10
470.1287807214521
 20
317.1759187070929
 30
0.0
 11
464.1597276009725
 21
331.6288199158372
 31
0.0
  0
MTEXT
  5
4701
330
1F
100
AcDbEntity
  8
粗实线
100
AcDbMText
 10
382.5755249292943
 20
534.603057160035
 30
0.0
 40
7.700000000000001
 41
639.645506911315
 46
0.0
 71
     1
 72
     5
  1
\fArial|b0|i0|c0|p34;Use outside line for reveal mount cut:\PSink rim is ¼” revealed from the countertop opening.
 73
     1
 44
1.0
  0
MTEXT
  5
4702
330
1F
100
AcDbEntity
  8
粗实线
100
AcDbMText
 10
382.5755249292943
 20
500.7773608336792
 30
0.0
 40
7.700000000000001
 41
639.645506911315
 46
0.0
 71
     1
 72
     5
  1
\fArial|b0|i0|c0|p34;Use middle line for flush mount cut:\PSink wall is flush to the edge of countertop opening.
 73
     1
 44
1.0
  0
MTEXT
  5
4703
330
1F
100
AcDbEntity
  8
粗实线
100
AcDbMText
 10
382.5755249292943
 20
466.4994137503017
 30
0.0
 40
7.700000000000001
 41
639.645506911315
 46
0.0
 71
     1
 72
     5
  1
\fArial|b0|i0|c0|p34;Use inside line for negative reveal mount cut:\PSink wall is covered ¼” inside the edge of countertop opening.
 73
     1
 44
1.0
  0
MTEXT
  5
4704
330
1F
100
AcDbEntity
  8
粗实线
100
AcDbMText
 10
382.5755249292943
 20
432.5448829645829
 30
0.0
 40
7.700000000000001
 41
639.645506911315
 46
0.0
 71
     1
 72
     5
  1
\fArial|b0|i0|c0|p34;Please check actual template against physical sink unit for most accurate cut.
 73
     1
 44
1.0
  0
DIMENSION
  5
477D
330
1F
100
AcDbEntity
  8
标注
100
AcDbDimension
  2
*D1
 10
311.2664468469479
 20
855.8611632339488
 30
0.0
 11
584.0329343690282
 21
855.8611632339488
 31
0.0
 70
   160
  1
{\fArial|b0|i0|c0|p34;<>}
 71
     5
 42
545.0
 73
     0
 74
     0
 75
     0
  3
英寸
100
AcDbAlignedDimension
 13
856.2664468469479
 23
781.5
 33
0.0
 14
311.2664468469479
 24
795.5
 34
0.0
100
AcDbRotatedDimension
1001
ACAD
1000
DSTYLE
1002
{
1070
    41
1040
8.0
1002
}
  0
DIMENSION
  5
477E
330
1F
100
AcDbEntity
  8
标注
100
AcDbDimension
  2
*D2
 10
234.0377399689496
 20
308.9999759392815
 30
0.0
 11
234.0377399689496
 21
547.99997593928
 31
0.0
 70
   160
  1
{\fArial|b0|i0|c0|p34;<>}
 71
     5
 42
477.9999999999971
 73
     0
 74
     0
 75
     0
  3
英寸
100
AcDbAlignedDimension
 13
313.0
 23
786.9999759392786
 33
0.0
 14
309.5
 24
308.9999759392815
 34
0.0
 50
90.0
100
AcDbRotatedDimension
1001
ACAD
1000
DSTYLE
1002
{
1070
    41
1040
8.0
1002
}
  0
DIMENSION
  5
477F
330
1F
100
AcDbEntity
  8
标注
100
AcDbDimension
  2
*D3
 10
304.9164468469471
 20
889.3611632339487
 30
0.0
 11
584.033116261693
 21
889.3611632339487
 31
0.0
 70
   160
  1
{\fArial|b0|i0|c0|p34;<>}
 71
     5
 42
557.7000000000009
 73
     0
 74
     0
 75
     0
  3
英寸
100
AcDbAlignedDimension
 13
862.6164468469481
 23
783.4999999999999
 33
0.0
 14
304.9164468469471
 24
799.5
 34
0.0
100
AcDbRotatedDimension
1001
ACAD
1000
DSTYLE
1002
{
1070
    41
1040
8.0
1002
}
  0
DIMENSION
  5
4780
330
1F
100
AcDbEntity
  8
标注
100
AcDbDimension
  2
*D4
 10
203.0377399689496
 20
302.6499759392818
 30
0.0
 11
203.0377399689496
 21
547.99997593928
 31
0.0
 70
   160
  1
{\fArial|b0|i0|c0|p34;<>}
 71
     5
 42
490.6999999999964
 73
     0
 74
     0
 75
     0
  3
英寸
100
AcDbAlignedDimension
 13
313.0
 23
793.3499759392782
 33
0.0
 14
311.0
 24
302.6499759392818
 34
0.0
 50
90.0
100
AcDbRotatedDimension
1001
ACAD
1000
DSTYLE
1002
{
1070
    41
1040
8.0
1002
}
  0
DIMENSION
  5
4781
330
1F
100
AcDbEntity
  8
标注
100
AcDbDimension
  2
*D5
 10
317.6164468469474
 20
824.8611632339487
 30
0.0
 11
583.7664468469478
 21
824.8611632339487
 31
0.0
 70
   160
  1
{\fArial|b0|i0|c0|p34;<>}
 71
     5
 42
532.3000000000011
 73
     0
 74
     0
 75
     0
  3
英寸
100
AcDbAlignedDimension
 13
849.9164468469485
 23
783.4999999999999
 33
0.0
 14
317.6164468469474
 24
797.0
 34
0.0
100
AcDbRotatedDimension
1001
ACAD
1000
DSTYLE
1002
{
1070
    41
1040
8.0
1002
}
  0
DIMENSION
  5
4782
330
1F
100
AcDbEntity
  8
标注
100
AcDbDimension
  2
*D6
 10
262.0377399689496
 20
315.3499759392805
 30
0.0
 11
262.0377399689496
 21
547.9999759392797
 31
0.0
 70
   160
  1
{\fArial|b0|i0|c0|p34;<>}
 71
     5
 42
465.2999999999988
 73
     0
 74
     0
 75
     0
  3
英寸
100
AcDbAlignedDimension
 13
311.5
 23
780.6499759392792
 33
0.0
 14
306.5
 24
315.3499759392805
 34
0.0
 50
90.0
100
AcDbRotatedDimension
1001
ACAD
1000
DSTYLE
1002
{
1070
    41
1040
8.0
1002
}
  0
DIMENSION
  5
489C
330
1F
100
AcDbEntity
  8
标注
100
AcDbDimension
  2
*D7
 10
856.2664468469458
 20
486.5
 30
0.0
 11
778.5
 21
486.5
 31
0.0
 70
   160
  1
{\fArial|b0|i0|c0|p34;<>}
 71
     5
 42
6.350000000002182
 73
     0
 74
     0
 75
     0
  3
英寸
100
AcDbAlignedDimension
 13
849.9164468469437
 23
508.999975939307
 33
0.0
 14
856.2664468469458
 24
508.9999759392997
 34
0.0
100
AcDbRotatedDimension
1001
ACAD
1000
DSTYLE
1002
{
1070
    41
1040
8.0
1002
}
  0
DIMENSION
  5
489D
330
1F
100
AcDbEntity
  8
标注
100
AcDbDimension
  2
*D8
 10
862.6164468469481
 20
459.0
 30
0.0
 11
784.0
 21
459.0
 31
0.0
 70
   160
  1
{\fArial|b0|i0|c0|p34;<>}
 71
     5
 42
6.350000000002182
 73
     0
 74
     0
 75
     0
  3
英寸
100
AcDbAlignedDimension
 13
856.2664468469458
 23
508.9999759392997
 33
0.0
 14
862.6164468469481
 24
508.999975939307
 34
0.0
100
AcDbRotatedDimension
1001
ACAD
1000
DSTYLE
1002
{
1070
    41
1040
8.0
1002
}
  0
MTEXT
  5
4B47
330
1F
100
AcDbEntity
  8
粗实线
100
AcDbMText
 10
736.4230306053977
 20
338.071255333005
 30
0.0
 40
6.720000000000001
 41
257.7831101723577
 46
0.0
 71
     1
 72
     5
  1
\fTahoma|b0|i0|c0|p34;\H1x;U340
  7
样式 8
 73
     1
 44
1.0
  0
ENDSEC
  0
SECTION
  2
OBJECTS
  0
DICTIONARY
  5
C
330
0
100
AcDbDictionary
281
     1
  3
ACAD_COLOR
350
3513
  3
ACAD_GROUP
350
D
  3
ACAD_LAYOUT
350
1A
  3
ACAD_MATERIAL
350
350F
  3
ACAD_MLINESTYLE
350
17
  3
ACAD_PLOTSETTINGS
350
19
  3
ACAD_PLOTSTYLENAME
350
E
  3
ACAD_TABLESTYLE
350
E9
  3
ACAD_VISUALSTYLE
350
28
  3
AcDbVariableDictionary
350
366A
  0
DICTIONARY
  5
36E2
330
2
100
AcDbDictionary
280
     1
281
     1
  3
ACAD_LAYERSTATES
360
36E3
  0
DICTIONARY
  5
3513
102
{ACAD_REACTORS
330
C
102
}
330
C
100
AcDbDictionary
281
     1
  0
DICTIONARY
  5
D
102
{ACAD_REACTORS
330
C
102
}
330
C
100
AcDbDictionary
281
     1
  0
DICTIONARY
  5
1A
102
{ACAD_REACTORS
330
C
102
}
330
C
100
AcDbDictionary
281
     1
  3
Layout1
350
1E
  3
Layout2
350
24
  3
Model
350
22
  0
DICTIONARY
  5
350F
102
{ACAD_REACTORS
330
C
102
}
330
C
100
AcDbDictionary
281
     1
  3
ByBlock
350
3511
  3
ByLayer
350
3510
  3
Global
350
3512
  0
DICTIONARY
  5
17
102
{ACAD_REACTORS
330
C
102
}
330
C
100
AcDbDictionary
281
     1
  3
Standard
350
18
  0
DICTIONARY
  5
19
102
{ACAD_REACTORS
330
C
102
}
330
C
100
AcDbDictionary
281
     1
  0
ACDBDICTIONARYWDFLT
  5
E
102
{ACAD_REACTORS
330
C
102
}
330
C
100
AcDbDictionary
281
     1
  3
Normal
350
F
100
AcDbDictionaryWithDefault
340
F
  0
DICTIONARY
  5
E9
102
{ACAD_REACTORS
330
C
102
}
330
C
100
AcDbDictionary
281
     1
  3
Standard
350
3514
  0
DICTIONARY
  5
28
102
{ACAD_REACTORS
330
C
102
}
330
C
100
AcDbDictionary
281
     1
  3
2dWireframe
350
2D
  3
3D Hidden
350
2F
  3
3dWireframe
350
2E
  3
Basic
350
30
  3
Brighten
350
34
  3
ColorChange
350
38
  3
Conceptual
350
32
  3
Dim
350
33
  3
Facepattern
350
37
  3
Flat
350
29
  3
FlatWithEdges
350
2A
  3
Gouraud
350
2B
  3
GouraudWithEdges
350
2C
  3
Linepattern
350
36
  3
Realistic
350
31
  3
Thicken
350
35
  0
DICTIONARY
  5
366A
102
{ACAD_REACTORS
330
C
102
}
330
C
100
AcDbDictionary
281
     1
  3
CTABLESTYLE
350
366B
  0
DICTIONARY
  5
36E3
102
{ACAD_REACTORS
330
36E2
102
}
330
36E2
100
AcDbDictionary
281
     1
  0
LAYOUT
  5
1E
102
{ACAD_REACTORS
330
1A
102
}
330
1A
100
AcDbPlotSettings
  1

  2
none_device
  4

  6

 40
0.0
 41
0.0
 42
0.0
 43
0.0
 44
0.0
 45
0.0
 46
0.0
 47
0.0
 48
0.0
 49
0.0
140
0.0
141
0.0
142
1.0
143
1.0
 70
   688
 72
     0
 73
     0
 74
     5
  7

 75
    16
147
1.0
 76
     0
 77
     2
 78
   300
148
0.0
149
0.0
100
AcDbLayout
  1
Layout1
 70
     1
 71
     1
 10
0.0
 20
0.0
 11
12.0
 21
9.0
 12
0.0
 22
0.0
 32
0.0
 14
1.000000000000000E+20
 24
1.000000000000000E+20
 34
1.000000000000000E+20
 15
-1.000000000000000E+20
 25
-1.000000000000000E+20
 35
-1.000000000000000E+20
146
0.0
 13
0.0
 23
0.0
 33
0.0
 16
1.0
 26
0.0
 36
0.0
 17
0.0
 27
1.0
 37
0.0
 76
     0
330
1B
  0
LAYOUT
  5
24
102
{ACAD_REACTORS
330
1A
102
}
330
1A
100
AcDbPlotSettings
  1

  2
none_device
  4

  6

 40
0.0
 41
0.0
 42
0.0
 43
0.0
 44
0.0
 45
0.0
 46
0.0
 47
0.0
 48
0.0
 49
0.0
140
0.0
141
0.0
142
1.0
143
1.0
 70
   688
 72
     0
 73
     0
 74
     5
  7

 75
    16
147
1.0
 76
     0
 77
     2
 78
   300
148
0.0
149
0.0
100
AcDbLayout
  1
Layout2
 70
     1
 71
     2
 10
0.0
 20
0.0
 11
0.0
 21
0.0
 12
0.0
 22
0.0
 32
0.0
 14
0.0
 24
0.0
 34
0.0
 15
0.0
 25
0.0
 35
0.0
146
0.0
 13
0.0
 23
0.0
 33
0.0
 16
1.0
 26
0.0
 36
0.0
 17
0.0
 27
1.0
 37
0.0
 76
     0
330
23
  0
LAYOUT
  5
22
102
{ACAD_REACTORS
330
1A
102
}
330
1A
100
AcDbPlotSettings
  1

  2
pdfFactory
  4
A4
  6

 40
6.349999999999999
 41
6.350000000000008
 42
6.350000000000018
 43
6.349999999999999
 44
210.0
 45
297.0
 46
-0.0000000000000024
 47
2.644949494949784
 48
145.5
 49
238.0
140
921.4999999999999
141
931.4999999999999
142
1.0
143
4.156151889349512
 70
  1716
 72
     1
 73
     1
 74
     4
  7
Monochrome.ctb
 75
     0
147
0.2406071834291195
 76
     0
 77
     2
 78
   300
148
0.0
149
0.0
100
AcDbLayout
  1
Model
 70
     1
 71
     0
 10
0.0
 20
0.0
 11
12.0
 21
9.0
 12
0.0
 22
0.0
 32
0.0
 14
176.2246431067395
 24
302.6499759392818
 34
0.0
 15
878.6164468469481
 25
916.0705766036624
 35
0.0
146
0.0
 13
0.0
 23
0.0
 33
0.0
 16
1.0
 26
0.0
 36
0.0
 17
0.0
 27
1.0
 37
0.0
 76
     0
330
1F
331
27
  0
MATERIAL
  5
3511
102
{ACAD_XDICTIONARY
360
4B4A
102
}
102
{ACAD_REACTORS
330
350F
102
}
330
350F
100
AcDbMaterial
  1
ByBlock
  0
MATERIAL
  5
3510
102
{ACAD_XDICTIONARY
360
4B4C
102
}
102
{ACAD_REACTORS
330
350F
102
}
330
350F
100
AcDbMaterial
  1
ByLayer
  0
MATERIAL
  5
3512
102
{ACAD_XDICTIONARY
360
4B4E
102
}
102
{ACAD_REACTORS
330
350F
102
}
330
350F
100
AcDbMaterial
  1
Global
  0
MLINESTYLE
  5
18
102
{ACAD_REACTORS
330
17
102
}
330
17
100
AcDbMlineStyle
  2
STANDARD
 70
     0
  3

 62
   256
 51
90.0
 52
90.0
 71
     2
 49
0.5
 62
   256
  6
BYLAYER
 49
-0.5
 62
   256
  6
BYLAYER
  0
ACDBPLACEHOLDER
  5
F
102
{ACAD_REACTORS
330
E
102
}
330
E
  0
TABLESTYLE
  5
3514
102
{ACAD_REACTORS
330
E9
102
}
330
E9
100
AcDbTableStyle
  3
Standard
 70
     0
 71
     0
 40
0.06
 41
0.06
280
     0
281
     0
  7
Standard
140
0.18
170
     2
 62
     0
 63
     7
283
     0
 90
      512
 91
        0
  1

274
    -2
284
     1
 64
     0
275
    -2
285
     1
 65
     0
276
    -2
286
     1
 66
     0
277
    -2
287
     1
 67
     0
278
    -2
288
     1
 68
     0
279
    -2
289
     1
 69
     0
  7
Standard
140
0.25
170
     5
 62
     0
 63
     7
283
     0
 90
      512
 91
        0
  1

274
    -2
284
     1
 64
     0
275
    -2
285
     1
 65
     0
276
    -2
286
     1
 66
     0
277
    -2
287
     1
 67
     0
278
    -2
288
     1
 68
     0
279
    -2
289
     1
 69
     0
  7
Standard
140
0.18
170
     5
 62
     0
 63
     7
283
     0
 90
      512
 91
        0
  1

274
    -2
284
     1
 64
     0
275
    -2
285
     1
 65
     0
276
    -2
286
     1
 66
     0
277
    -2
287
     1
 67
     0
278
    -2
288
     1
 68
     0
279
    -2
289
     1
 69
     0
  0
VISUALSTYLE
  5
2D
102
{ACAD_REACTORS
330
28
102
}
330
28
100
AcDbVisualStyle
  2
2dWireframe
 70
     4
 71
     0
 72
     2
 73
     0
 90
        0
 40
-0.6
 41
-30.0
 62
     5
 63
     7
421
 16777215
 74
     1
 91
        4
 64
     7
 65
   257
 75
     1
175
     1
 42
1.0
 92
        0
 66
   257
 43
1.0
 76
     1
 77
     6
 78
     2
 67
     7
 79
     5
170
     0
171
     0
290
     0
174
     0
 93
        1
 44
0.0
173
     0
291
     0
 45
0.0
1001
ACAD
1000
AcDbSavedByObjectVersion
1070
     0
  0
VISUALSTYLE
  5
2F
102
{ACAD_REACTORS
330
28
102
}
330
28
100
AcDbVisualStyle
  2
3D Hidden
 70
     6
 71
     1
 72
     2
 73
     2
 90
        0
 40
-0.6
 41
-30.0
 62
     5
 63
     7
421
 16777215
 74
     2
 91
        2
 64
     7
 65
   257
 75
     2
175
     1
 42
40.0
 92
        0
 66
   257
 43
1.0
 76
     1
 77
     6
 78
     2
 67
     7
 79
     3
170
     0
171
     0
290
     0
174
     0
 93
        1
 44
0.0
173
     0
291
     0
 45
0.0
1001
ACAD
1000
AcDbSavedByObjectVersion
1070
     0
  0
VISUALSTYLE
  5
2E
102
{ACAD_REACTORS
330
28
102
}
330
28
100
AcDbVisualStyle
  2
3dWireframe
 70
     5
 71
     0
 72
     2
 73
     0
 90
        0
 40
-0.6
 41
-30.0
 62
     5
 63
     7
421
 16777215
 74
     1
 91
        4
 64
     7
 65
   257
 75
     1
175
     1
 42
1.0
 92
        0
 66
   257
 43
1.0
 76
     1
 77
     6
 78
     2
 67
     7
 79
     5
170
     0
171
     0
290
     0
174
     0
 93
        1
 44
0.0
173
     0
291
     0
 45
0.0
1001
ACAD
1000
AcDbSavedByObjectVersion
1070
     0
  0
VISUALSTYLE
  5
30
102
{ACAD_REACTORS
330
28
102
}
330
28
100
AcDbVisualStyle
  2
Basic
 70
     7
 71
     1
 72
     0
 73
     1
 90
        0
 40
-0.6
 41
-30.0
 62
     5
 63
     7
421
 16777215
 74
     0
 91
        4
 64
     7
 65
   257
 75
     1
175
     1
 42
1.0
 92
        8
 66
     7
 43
1.0
 76
     1
 77
     6
 78
     2
 67
     7
 79
     5
170
     0
171
     0
290
     0
174
     0
 93
        1
 44
0.0
173
     0
291
     1
 45
0.0
1001
ACAD
1000
AcDbSavedByObjectVersion
1070
     0
  0
VISUALSTYLE
  5
34
102
{ACAD_REACTORS
330
28
102
}
330
28
100
AcDbVisualStyle
  2
Brighten
 70
    12
 71
     2
 72
     2
 73
     0
 90
        0
 40
-0.6
 41
-30.0
 62
     5
 63
     7
421
 16777215
 74
     1
 91
        4
 64
     7
 65
   257
 75
     1
175
     1
 42
1.0
 92
        8
 66
     7
 43
1.0
 76
     1
 77
     6
 78
     2
 67
     7
 79
     5
170
     0
171
     0
290
     0
174
     0
 93
        1
 44
50.0
173
     0
291
     1
 45
0.0
1001
ACAD
1000
AcDbSavedByObjectVersion
1070
     0
  0
VISUALSTYLE
  5
38
102
{ACAD_REACTORS
330
28
102
}
330
28
100
AcDbVisualStyle
  2
ColorChange
 70
    16
 71
     2
 72
     2
 73
     3
 90
        0
 40
-0.6
 41
-30.0
 62
     5
 63
     8
421
  8421504
 74
     1
 91
        4
 64
     7
 65
   257
 75
     1
175
     1
 42
1.0
 92
        8
 66
     8
424
  8421504
 43
1.0
 76
     1
 77
     6
 78
     2
 67
     7
 79
     5
170
     0
171
     0
290
     0
174
     0
 93
        1
 44
0.0
173
     0
291
     1
 45
0.0
1001
ACAD
1000
AcDbSavedByObjectVersion
1070
     0
  0
VISUALSTYLE
  5
32
102
{ACAD_REACTORS
330
28
102
}
330
28
100
AcDbVisualStyle
  2
Conceptual
 70
     9
 71
     3
 72
     2
 73
     0
 90
        0
 40
-0.6
 41
-30.0
 62
     5
 63
     7
421
 16777215
 74
     2
 91
        2
 64
     7
 65
   257
 75
     1
175
     1
 42
40.0
 92
        8
 66
     7
 43
1.0
 76
     1
 77
     6
 78
     2
 67
     7
 79
     3
170
     0
171
     0
290
     0
174
     0
 93
        1
 44
0.0
173
     0
291
     0
 45
0.0
1001
ACAD
1000
AcDbSavedByObjectVersion
1070
     0
  0
VISUALSTYLE
  5
33
102
{ACAD_REACTORS
330
28
102
}
330
28
100
AcDbVisualStyle
  2
Dim
 70
    11
 71
     2
 72
     2
 73
     0
 90
        0
 40
-0.6
 41
-30.0
 62
     5
 63
     7
421
 16777215
 74
     1
 91
        4
 64
     7
 65
   257
 75
     1
175
     1
 42
1.0
 92
        8
 66
     7
 43
1.0
 76
     1
 77
     6
 78
     2
 67
     7
 79
     5
170
     0
171
     0
290
     0
174
     0
 93
        1
 44
-50.0
173
     0
291
     1
 45
0.0
1001
ACAD
1000
AcDbSavedByObjectVersion
1070
     0
  0
VISUALSTYLE
  5
37
102
{ACAD_REACTORS
330
28
102
}
330
28
100
AcDbVisualStyle
  2
Facepattern
 70
    15
 71
     2
 72
     2
 73
     0
 90
        0
 40
-0.6
 41
-30.0
 62
     5
 63
     7
421
 16777215
 74
     1
 91
        4
 64
     7
 65
   257
 75
     1
175
     1
 42
1.0
 92
        8
 66
     7
 43
1.0
 76
     1
 77
     6
 78
     2
 67
     7
 79
     5
170
     0
171
     0
290
     0
174
     0
 93
        1
 44
0.0
173
     0
291
     1
 45
0.0
1001
ACAD
1000
AcDbSavedByObjectVersion
1070
     0
  0
VISUALSTYLE
  5
29
102
{ACAD_REACTORS
330
28
102
}
330
28
100
AcDbVisualStyle
  2
Flat
 70
     0
 71
     2
 72
     1
 73
     1
 90
        2
 40
-0.6
 41
30.0
 62
     5
 63
     7
421
 16777215
 74
     0
 91
        4
 64
     7
 65
   257
 75
     1
175
     1
 42
1.0
 92
        8
 66
     7
 43
1.0
 76
     1
 77
     6
 78
     2
 67
     7
 79
     5
170
     0
171
     0
290
     0
174
     0
 93
       13
 44
0.0
173
     0
291
     1
 45
0.0
1001
ACAD
1000
AcDbSavedByObjectVersion
1070
     0
  0
VISUALSTYLE
  5
2A
102
{ACAD_REACTORS
330
28
102
}
330
28
100
AcDbVisualStyle
  2
FlatWithEdges
 70
     1
 71
     2
 72
     1
 73
     1
 90
        2
 40
-0.6
 41
30.0
 62
     5
 63
     7
421
 16777215
 74
     1
 91
        4
 64
     7
 65
   257
 75
     1
175
     1
 42
1.0
 92
        0
 66
   257
 43
1.0
 76
     1
 77
     6
 78
     2
 67
     7
 79
     5
170
     0
171
     0
290
     0
174
     0
 93
       13
 44
0.0
173
     0
291
     1
 45
0.0
1001
ACAD
1000
AcDbSavedByObjectVersion
1070
     0
  0
VISUALSTYLE
  5
2B
102
{ACAD_REACTORS
330
28
102
}
330
28
100
AcDbVisualStyle
  2
Gouraud
 70
     2
 71
     2
 72
     2
 73
     1
 90
        2
 40
-0.6
 41
30.0
 62
     5
 63
     7
421
 16777215
 74
     0
 91
        4
 64
     7
 65
   257
 75
     1
175
     1
 42
1.0
 92
        0
 66
     7
 43
1.0
 76
     1
 77
     6
 78
     2
 67
     7
 79
     5
170
     0
171
     0
290
     0
174
     0
 93
       13
 44
0.0
173
     0
291
     1
 45
0.0
1001
ACAD
1000
AcDbSavedByObjectVersion
1070
     0
  0
VISUALSTYLE
  5
2C
102
{ACAD_REACTORS
330
28
102
}
330
28
100
AcDbVisualStyle
  2
GouraudWithEdges
 70
     3
 71
     2
 72
     2
 73
     1
 90
        2
 40
-0.6
 41
30.0
 62
     5
 63
     7
421
 16777215
 74
     1
 91
        4
 64
     7
 65
   257
 75
     1
175
     1
 42
1.0
 92
        0
 66
   257
 43
1.0
 76
     1
 77
     6
 78
     2
 67
     7
 79
     5
170
     0
171
     0
290
     0
174
     0
 93
       13
 44
0.0
173
     0
291
     1
 45
0.0
1001
ACAD
1000
AcDbSavedByObjectVersion
1070
     0
  0
VISUALSTYLE
  5
36
102
{ACAD_REACTORS
330
28
102
}
330
28
100
AcDbVisualStyle
  2
Linepattern
 70
    14
 71
     2
 72
     2
 73
     0
 90
        0
 40
-0.6
 41
-30.0
 62
     5
 63
     7
421
 16777215
 74
     1
 91
        4
 64
     7
 65
   257
 75
     7
175
     7
 42
1.0
 92
        8
 66
     7
 43
1.0
 76
     1
 77
     6
 78
     2
 67
     7
 79
     5
170
     0
171
     0
290
     0
174
     0
 93
        1
 44
0.0
173
     0
291
     1
 45
0.0
1001
ACAD
1000
AcDbSavedByObjectVersion
1070
     0
  0
VISUALSTYLE
  5
31
102
{ACAD_REACTORS
330
28
102
}
330
28
100
AcDbVisualStyle
  2
Realistic
 70
     8
 71
     2
 72
     2
 73
     0
 90
        0
 40
-0.6
 41
-30.0
 62
     5
 63
     7
421
 16777215
 74
     1
 91
        0
 64
     7
 65
   257
 75
     1
175
     1
 42
1.0
 92
        8
 66
     8
424
  7895160
 43
1.0
 76
     1
 77
     6
 78
     2
 67
     7
 79
     5
170
     0
171
     0
290
     0
174
     0
 93
       13
 44
0.0
173
     0
291
     0
 45
0.0
1001
ACAD
1000
AcDbSavedByObjectVersion
1070
     0
  0
VISUALSTYLE
  5
35
102
{ACAD_REACTORS
330
28
102
}
330
28
100
AcDbVisualStyle
  2
Thicken
 70
    13
 71
     2
 72
     2
 73
     0
 90
        0
 40
-0.6
 41
-30.0
 62
     5
 63
     7
421
 16777215
 74
     1
 91
        4
 64
     7
 65
   257
 75
     1
175
     1
 42
1.0
 92
       12
 66
     7
 43
1.0
 76
     1
 77
     6
 78
     2
 67
     7
 79
     5
170
     0
171
     0
290
     0
174
     0
 93
        1
 44
0.0
173
     0
291
     1
 45
0.0
1001
ACAD
1000
AcDbSavedByObjectVersion
1070
     0
  0
DICTIONARYVAR
  5
366B
102
{ACAD_REACTORS
330
366A
102
}
330
366A
100
DictionaryVariables
280
     0
  1
STANDARD
  0
DICTIONARY
  5
4B4A
330
3511
100
AcDbDictionary
280
     1
281
     1
  3
ACAD_XREC_ROUNDTRIP
360
4B4B
  0
DICTIONARY
  5
4B4C
330
3510
100
AcDbDictionary
280
     1
281
     1
  3
ACAD_XREC_ROUNDTRIP
360
4B4D
  0
DICTIONARY
  5
4B4E
330
3512
100
AcDbDictionary
280
     1
281
     1
  3
ACAD_XREC_ROUNDTRIP
360
4B4F
  0
XRECORD
  5
4B4B
102
{ACAD_REACTORS
330
4B4A
102
}
330
4B4A
100
AcDbXrecord
280
     1
102
MATERIAL
148
0.0
149
0.0
149
0.0
 93
        0
 94
       63
282
     0
 72
     1
 77
     1
171
     1
175
     1
179
     1
273
     0
  0
XRECORD
  5
4B4D
102
{ACAD_REACTORS
330
4B4C
102
}
330
4B4C
100
AcDbXrecord
280
     1
102
MATERIAL
148
0.0
149
0.0
149
0.0
 93
        0
 94
       63
282
     0
 72
     1
 77
     1
171
     1
175
     1
179
     1
273
     0
  0
XRECORD
  5
4B4F
102
{ACAD_REACTORS
330
4B4E
102
}
330
4B4E
100
AcDbXrecord
280
     1
102
MATERIAL
148
0.0
149
0.0
149
0.0
 93
        0
 94
       63
282
     0
 72
     1
 77
     1
171
     1
175
     1
179
     1
273
     0
  0
ENDSEC
  0
EOF
