  0
SECTION
  2
HEADER
  9
$ACADVER
  1
AC1015
  9
$ACADMAINTVER
 70
    13
  9
$DWGCODEPAGE
  3
ANSI_1252
  9
$INSBASE
 10
0.0
 20
0.0
 30
0.0
  9
$EXTMIN
 10
278.4075636980426
 20
325.768515364851
 30
0.0
  9
$EXTMAX
 10
307.3427252076364
 20
354.925862118712
 30
0.0
  9
$LIMMIN
 10
0.0
 20
0.0
  9
$LIMMAX
 10
12.0
 20
9.0
  9
$ORTHOMODE
 70
     1
  9
$REGENMODE
 70
     1
  9
$FILLMODE
 70
     1
  9
$QTEXTMODE
 70
     0
  9
$MIRRTEXT
 70
     0
  9
$LTSCALE
 40
1.0
  9
$ATTMODE
 70
     1
  9
$TEXTSIZE
 40
0.2
  9
$TRACEWID
 40
0.05
  9
$TEXTSTYLE
  7
Standard
  9
$CLAYER
  8
0
  9
$CELTYPE
  6
ByLayer
  9
$CECOLOR
 62
   256
  9
$CELTSCALE
 40
1.0
  9
$DISPSILH
 70
     0
  9
$DIMSCALE
 40
1.0
  9
$DIMASZ
 40
0.18
  9
$DIMEXO
 40
0.0625
  9
$DIMDLI
 40
0.38
  9
$DIMRND
 40
0.0
  9
$DIMDLE
 40
0.0
  9
$DIMEXE
 40
0.18
  9
$DIMTP
 40
0.0
  9
$DIMTM
 40
0.0
  9
$DIMTXT
 40
0.18
  9
$DIMCEN
 40
0.09
  9
$DIMTSZ
 40
0.0
  9
$DIMTOL
 70
     0
  9
$DIMLIM
 70
     0
  9
$DIMTIH
 70
     1
  9
$DIMTOH
 70
     1
  9
$DIMSE1
 70
     0
  9
$DIMSE2
 70
     0
  9
$DIMTAD
 70
     0
  9
$DIMZIN
 70
     0
  9
$DIMBLK
  1

  9
$DIMASO
 70
     1
  9
$DIMSHO
 70
     1
  9
$DIMPOST
  1

  9
$DIMAPOST
  1

  9
$DIMALT
 70
     0
  9
$DIMALTD
 70
     2
  9
$DIMALTF
 40
25.4
  9
$DIMLFAC
 40
1.0
  9
$DIMTOFL
 70
     0
  9
$DIMTVP
 40
0.0
  9
$DIMTIX
 70
     0
  9
$DIMSOXD
 70
     0
  9
$DIMSAH
 70
     0
  9
$DIMBLK1
  1

  9
$DIMBLK2
  1

  9
$DIMSTYLE
  2
Standard
  9
$DIMCLRD
 70
     0
  9
$DIMCLRE
 70
     0
  9
$DIMCLRT
 70
     0
  9
$DIMTFAC
 40
1.0
  9
$DIMGAP
 40
0.09
  9
$DIMJUST
 70
     0
  9
$DIMSD1
 70
     0
  9
$DIMSD2
 70
     0
  9
$DIMTOLJ
 70
     1
  9
$DIMTZIN
 70
     0
  9
$DIMALTZ
 70
     0
  9
$DIMALTTZ
 70
     0
  9
$DIMUPT
 70
     0
  9
$DIMDEC
 70
     4
  9
$DIMTDEC
 70
     4
  9
$DIMALTU
 70
     2
  9
$DIMALTTD
 70
     2
  9
$DIMTXSTY
  7
Standard
  9
$DIMAUNIT
 70
     0
  9
$DIMADEC
 70
     0
  9
$DIMALTRND
 40
0.0
  9
$DIMAZIN
 70
     0
  9
$DIMDSEP
 70
    46
  9
$DIMATFIT
 70
     3
  9
$DIMFRAC
 70
     0
  9
$DIMLDRBLK
  1

  9
$DIMLUNIT
 70
     2
  9
$DIMLWD
 70
    -2
  9
$DIMLWE
 70
    -2
  9
$DIMTMOVE
 70
     0
  9
$LUNITS
 70
     2
  9
$LUPREC
 70
     4
  9
$SKETCHINC
 40
0.1
  9
$FILLETRAD
 40
0.0
  9
$AUNITS
 70
     0
  9
$AUPREC
 70
     0
  9
$MENU
  1
.
  9
$ELEVATION
 40
0.0
  9
$PELEVATION
 40
0.0
  9
$THICKNESS
 40
0.0
  9
$LIMCHECK
 70
     0
  9
$CHAMFERA
 40
0.0
  9
$CHAMFERB
 40
0.0
  9
$CHAMFERC
 40
0.0
  9
$CHAMFERD
 40
0.0
  9
$SKPOLY
 70
     0
  9
$TDCREATE
 40
2454362.833726666
  9
$TDUCREATE
 40
2454363.042059999
  9
$TDUPDATE
 40
2454965.587492662
  9
$TDUUPDATE
 40
2454965.795825995
  9
$TDINDWG
 40
0.0034335417
  9
$TDUSRTIMER
 40
0.0034333565
  9
$USRTIMER
 70
     1
  9
$ANGBASE
 50
0.0
  9
$ANGDIR
 70
     0
  9
$PDMODE
 70
     0
  9
$PDSIZE
 40
0.0
  9
$PLINEWID
 40
0.0
  9
$SPLFRAME
 70
     0
  9
$SPLINETYPE
 70
     6
  9
$SPLINESEGS
 70
     8
  9
$HANDSEED
  5
373
  9
$SURFTAB1
 70
     6
  9
$SURFTAB2
 70
     6
  9
$SURFTYPE
 70
     6
  9
$SURFU
 70
     6
  9
$SURFV
 70
     6
  9
$UCSBASE
  2

  9
$UCSNAME
  2

  9
$UCSORG
 10
0.0
 20
0.0
 30
0.0
  9
$UCSXDIR
 10
1.0
 20
0.0
 30
0.0
  9
$UCSYDIR
 10
0.0
 20
1.0
 30
0.0
  9
$UCSORTHOREF
  2

  9
$UCSORTHOVIEW
 70
     0
  9
$UCSORGTOP
 10
0.0
 20
0.0
 30
0.0
  9
$UCSORGBOTTOM
 10
0.0
 20
0.0
 30
0.0
  9
$UCSORGLEFT
 10
0.0
 20
0.0
 30
0.0
  9
$UCSORGRIGHT
 10
0.0
 20
0.0
 30
0.0
  9
$UCSORGFRONT
 10
0.0
 20
0.0
 30
0.0
  9
$UCSORGBACK
 10
0.0
 20
0.0
 30
0.0
  9
$PUCSBASE
  2

  9
$PUCSNAME
  2

  9
$PUCSORG
 10
0.0
 20
0.0
 30
0.0
  9
$PUCSXDIR
 10
1.0
 20
0.0
 30
0.0
  9
$PUCSYDIR
 10
0.0
 20
1.0
 30
0.0
  9
$PUCSORTHOREF
  2

  9
$PUCSORTHOVIEW
 70
     0
  9
$PUCSORGTOP
 10
0.0
 20
0.0
 30
0.0
  9
$PUCSORGBOTTOM
 10
0.0
 20
0.0
 30
0.0
  9
$PUCSORGLEFT
 10
0.0
 20
0.0
 30
0.0
  9
$PUCSORGRIGHT
 10
0.0
 20
0.0
 30
0.0
  9
$PUCSORGFRONT
 10
0.0
 20
0.0
 30
0.0
  9
$PUCSORGBACK
 10
0.0
 20
0.0
 30
0.0
  9
$USERI1
 70
     0
  9
$USERI2
 70
     0
  9
$USERI3
 70
     0
  9
$USERI4
 70
     0
  9
$USERI5
 70
     0
  9
$USERR1
 40
0.0
  9
$USERR2
 40
0.0
  9
$USERR3
 40
0.0
  9
$USERR4
 40
0.0
  9
$USERR5
 40
0.0
  9
$WORLDVIEW
 70
     1
  9
$SHADEDGE
 70
     3
  9
$SHADEDIF
 70
    70
  9
$TILEMODE
 70
     1
  9
$MAXACTVP
 70
    64
  9
$PINSBASE
 10
0.0
 20
0.0
 30
0.0
  9
$PLIMCHECK
 70
     0
  9
$PEXTMIN
 10
1.000000000000000E+20
 20
1.000000000000000E+20
 30
1.000000000000000E+20
  9
$PEXTMAX
 10
-1.000000000000000E+20
 20
-1.000000000000000E+20
 30
-1.000000000000000E+20
  9
$PLIMMIN
 10
0.0
 20
0.0
  9
$PLIMMAX
 10
12.0
 20
9.0
  9
$UNITMODE
 70
     0
  9
$VISRETAIN
 70
     1
  9
$PLINEGEN
 70
     0
  9
$PSLTSCALE
 70
     1
  9
$TREEDEPTH
 70
  3020
  9
$CMLSTYLE
  2
Standard
  9
$CMLJUST
 70
     0
  9
$CMLSCALE
 40
1.0
  9
$PROXYGRAPHICS
 70
     1
  9
$MEASUREMENT
 70
     0
  9
$CELWEIGHT
370
    -1
  9
$ENDCAPS
280
     0
  9
$JOINSTYLE
280
     0
  9
$LWDISPLAY
290
     0
  9
$INSUNITS
 70
     1
  9
$HYPERLINKBASE
  1

  9
$STYLESHEET
  1

  9
$XEDIT
290
     1
  9
$CEPSNTYPE
380
     0
  9
$PSTYLEMODE
290
     1
  9
$FINGERPRINTGUID
  2
{0E531C3A-B7F7-4903-B082-D345C3A4B74B}
  9
$VERSIONGUID
  2
{6CC68822-BCBF-4ECE-B35E-0A27BB9B2D2A}
  9
$EXTNAMES
290
     1
  9
$PSVPSCALE
 40
0.0
  9
$OLESTARTUP
290
     0
  0
ENDSEC
  0
SECTION
  2
CLASSES
  0
CLASS
  1
ACDBDICTIONARYWDFLT
  2
AcDbDictionaryWithDefault
  3
AutoCAD 2000
 90
        0
280
     0
281
     0
  0
CLASS
  1
DIMASSOC
  2
AcDbDimAssoc
  3
"AcDbDimAssoc|Product Desc:     AcDim ARX App For Dimension|Company:          Autodesk, Inc.|WEB Address:      www.autodesk.com"
 90
        0
280
     0
281
     0
  0
CLASS
  1
SORTENTSTABLE
  2
AcDbSortentsTable
  3
AutoCAD 2000
 90
    32768
280
     0
281
     0
  0
CLASS
  1
DICTIONARYVAR
  2
AcDbDictionaryVar
  3
AutoCAD 2000
 90
        0
280
     0
281
     0
  0
CLASS
  1
ACDBPLACEHOLDER
  2
AcDbPlaceHolder
  3
AutoCAD 2000
 90
        0
280
     0
281
     0
  0
CLASS
  1
LAYOUT
  2
AcDbLayout
  3
AutoCAD 2000
 90
        0
280
     0
281
     0
  0
ENDSEC
  0
SECTION
  2
TABLES
  0
TABLE
  2
VPORT
  5
8
330
0
100
AcDbSymbolTable
 70
     2
  0
VPORT
  5
372
330
8
100
AcDbSymbolTableRecord
100
AcDbViewportTableRecord
  2
*Active
 70
     0
 10
0.0
 20
0.0
 11
1.0
 21
1.0
 12
294.2490241308167
 22
340.5066935171085
 13
0.0
 23
0.0
 14
0.5
 24
0.5
 15
0.5
 25
0.5
 16
0.0
 26
0.0
 36
1.0
 17
0.0
 27
0.0
 37
0.0
 40
41.15018493383838
 41
2.140161725067385
 42
50.0
 43
0.0
 44
0.0
 50
0.0
 51
0.0
 71
     0
 72
  1000
 73
     1
 74
     3
 75
     0
 76
     0
 77
     0
 78
     0
281
     0
 65
     1
110
0.0
120
0.0
130
0.0
111
1.0
121
0.0
131
0.0
112
0.0
122
1.0
132
0.0
 79
     0
146
0.0
  0
ENDTAB
  0
TABLE
  2
LTYPE
  5
5
330
0
100
AcDbSymbolTable
 70
     3
  0
LTYPE
  5
14
330
5
100
AcDbSymbolTableRecord
100
AcDbLinetypeTableRecord
  2
ByBlock
 70
     0
  3

 72
    65
 73
     0
 40
0.0
  0
LTYPE
  5
15
330
5
100
AcDbSymbolTableRecord
100
AcDbLinetypeTableRecord
  2
ByLayer
 70
     0
  3

 72
    65
 73
     0
 40
0.0
  0
LTYPE
  5
16
330
5
100
AcDbSymbolTableRecord
100
AcDbLinetypeTableRecord
  2
Continuous
 70
     0
  3
Solid line
 72
    65
 73
     0
 40
0.0
  0
LTYPE
  5
9B
330
5
100
AcDbSymbolTableRecord
100
AcDbLinetypeTableRecord
  2
CENTERX2
 70
     0
  3
Center (2x) ________  __  ________  __  _____
 72
    65
 73
     4
 40
101.6
 49
63.5
 74
     0
 49
-12.7
 74
     0
 49
12.7
 74
     0
 49
-12.7
 74
     0
  0
LTYPE
  5
9C
330
5
100
AcDbSymbolTableRecord
100
AcDbLinetypeTableRecord
  2
HIDDENX2
 70
     0
  3
Hidden (2x) ____ ____ ____ ____ ____ ____ ____
 72
    65
 73
     2
 40
19.05
 49
12.7
 74
     0
 49
-6.349999999999997
 74
     0
  0
ENDTAB
  0
TABLE
  2
LAYER
  5
2
330
0
100
AcDbSymbolTable
 70
     5
  0
LAYER
  5
10
330
2
100
AcDbSymbolTableRecord
100
AcDbLayerTableRecord
  2
0
 70
     0
 62
     7
  6
Continuous
370
    -3
390
F
  0
LAYER
  5
9D
330
2
100
AcDbSymbolTableRecord
100
AcDbLayerTableRecord
  2
\M+5D6D0\M+5D0C4\M+5CFDF
 70
     0
 62
   230
  6
CENTERX2
370
    -3
390
F
1001
AcAecLayerStandard
1000

1000

  0
LAYER
  5
9E
330
2
100
AcDbSymbolTableRecord
100
AcDbLayerTableRecord
  2
\M+5B1EA\M+5D7A2
 70
     0
 62
    80
  6
Continuous
370
    -3
390
F
1001
AcAecLayerStandard
1000

1000

  0
LAYER
  5
9F
330
2
100
AcDbSymbolTableRecord
100
AcDbLayerTableRecord
  2
Defpoints
 70
     0
 62
     7
  6
Continuous
290
     0
370
    -3
390
F
  0
LAYER
  5
A0
330
2
100
AcDbSymbolTableRecord
100
AcDbLayerTableRecord
  2
\M+5D0E9\M+5CFDF
 70
     0
 62
   130
  6
HIDDENX2
370
    35
390
F
1001
AcAecLayerStandard
1000

1000

  0
ENDTAB
  0
TABLE
  2
STYLE
  5
3
330
0
100
AcDbSymbolTable
 70
     1
  0
STYLE
  5
11
330
3
100
AcDbSymbolTableRecord
100
AcDbTextStyleTableRecord
  2
Standard
 70
     0
 40
0.0
 41
1.0
 50
0.0
 71
     0
 42
0.2
  3
txt
  4

  0
ENDTAB
  0
TABLE
  2
VIEW
  5
6
330
0
100
AcDbSymbolTable
 70
     0
  0
ENDTAB
  0
TABLE
  2
UCS
  5
7
330
0
100
AcDbSymbolTable
 70
     0
  0
ENDTAB
  0
TABLE
  2
APPID
  5
9
330
0
100
AcDbSymbolTable
 70
     8
  0
APPID
  5
12
330
9
100
AcDbSymbolTableRecord
100
AcDbRegAppTableRecord
  2
ACAD
 70
     0
  0
APPID
  5
A3
330
9
100
AcDbSymbolTableRecord
100
AcDbRegAppTableRecord
  2
ACAD_PSEXT
 70
     0
  0
APPID
  5
A4
330
9
100
AcDbSymbolTableRecord
100
AcDbRegAppTableRecord
  2
AcAecLayerStandard
 70
     0
  0
APPID
  5
A5
330
9
100
AcDbSymbolTableRecord
100
AcDbRegAppTableRecord
  2
ACAD_DSTYLE_DIMEXT_LENGTH
 70
     0
  0
APPID
  5
A6
330
9
100
AcDbSymbolTableRecord
100
AcDbRegAppTableRecord
  2
ACAD_DSTYLE_DIMEXT_ENABLED
 70
     0
  0
APPID
  5
A7
330
9
100
AcDbSymbolTableRecord
100
AcDbRegAppTableRecord
  2
ACAD_DSTYLE_DIMJOGGED_JOGANGLE_SYMBOL
 70
     0
  0
APPID
  5
A8
330
9
100
AcDbSymbolTableRecord
100
AcDbRegAppTableRecord
  2
ACAD_DSTYLE_DIMARC_LENGTH_SYMBOL
 70
     0
  0
APPID
  5
2FD
330
9
100
AcDbSymbolTableRecord
100
AcDbRegAppTableRecord
  2
DCO15
 70
     0
  0
ENDTAB
  0
TABLE
  2
DIMSTYLE
  5
A
330
0
100
AcDbSymbolTable
 70
     3
100
AcDbDimStyleTable
 71
     1
340
29
  0
DIMSTYLE
105
29
102
{ACAD_REACTORS
330
1CB
330
1B0
330
26B
330
223
330
247
330
259
330
235
330
209
330
1EF
102
}
330
A
100
AcDbSymbolTableRecord
100
AcDbDimStyleTableRecord
  2
Standard
 70
     0
340
11
  0
DIMSTYLE
105
A1
330
A
100
AcDbSymbolTableRecord
100
AcDbDimStyleTableRecord
  2
ISO-25
 70
     0
 41
10.0
 42
5.0
 43
3.75
 44
3.0
 73
     0
 74
     0
 77
     1
 78
     8
140
24.0
141
7.0
143
0.03937007874016
147
5.0
171
     3
172
     1
271
     2
272
     2
274
     3
278
    44
283
     0
284
     8
340
11
1001
ACAD_DSTYLE_DIMEXT_LENGTH
1070
   378
1040
1.25
1001
ACAD_DSTYLE_DIMEXT_ENABLED
1070
   383
1070
     0
1001
ACAD_DSTYLE_DIMARC_LENGTH_SYMBOL
1070
   379
1070
     0
1001
ACAD_DSTYLE_DIMJOGGED_JOGANGLE_SYMBOL
1070
   384
1040
1.570796326794896
  0
DIMSTYLE
105
A2
330
A
100
AcDbSymbolTableRecord
100
AcDbDimStyleTableRecord
  2
mav
 70
     0
 41
12.0
 42
7.0
 43
3.75
 44
1.25
 73
     0
 74
     0
 77
     1
 78
     8
140
15.0
141
2.5
143
0.03937007874016
147
5.0
171
     3
172
     1
271
     2
272
     2
274
     3
278
    44
283
     0
284
     8
340
11
1001
ACAD_DSTYLE_DIMEXT_LENGTH
1070
   378
1040
1.25
1001
ACAD_DSTYLE_DIMEXT_ENABLED
1070
   383
1070
     0
1001
ACAD_DSTYLE_DIMARC_LENGTH_SYMBOL
1070
   379
1070
     0
1001
ACAD_DSTYLE_DIMJOGGED_JOGANGLE_SYMBOL
1070
   384
1040
1.570796326794896
  0
ENDTAB
  0
TABLE
  2
BLOCK_RECORD
  5
1
330
0
100
AcDbSymbolTable
 70
    11
  0
BLOCK_RECORD
  5
21
330
1
100
AcDbSymbolTableRecord
100
AcDbBlockTableRecord
  2
*Model_Space
340
24
  0
BLOCK_RECORD
  5
1D
330
1
100
AcDbSymbolTableRecord
100
AcDbBlockTableRecord
  2
*Paper_Space
340
20
  0
BLOCK_RECORD
  5
25
330
1
100
AcDbSymbolTableRecord
100
AcDbBlockTableRecord
  2
*Paper_Space0
340
28
  0
BLOCK_RECORD
  5
1B1
330
1
100
AcDbSymbolTableRecord
100
AcDbBlockTableRecord
  2
*D1
340
0
  0
BLOCK_RECORD
  5
1CC
330
1
100
AcDbSymbolTableRecord
100
AcDbBlockTableRecord
  2
*D2
340
0
  0
BLOCK_RECORD
  5
1F0
330
1
100
AcDbSymbolTableRecord
100
AcDbBlockTableRecord
  2
*D3
340
0
  0
BLOCK_RECORD
  5
20A
330
1
100
AcDbSymbolTableRecord
100
AcDbBlockTableRecord
  2
*D4
340
0
  0
BLOCK_RECORD
  5
224
330
1
100
AcDbSymbolTableRecord
100
AcDbBlockTableRecord
  2
*D5
340
0
  0
BLOCK_RECORD
  5
236
330
1
100
AcDbSymbolTableRecord
100
AcDbBlockTableRecord
  2
*D6
340
0
  0
BLOCK_RECORD
  5
248
330
1
100
AcDbSymbolTableRecord
100
AcDbBlockTableRecord
  2
*D7
340
0
  0
BLOCK_RECORD
  5
25A
330
1
100
AcDbSymbolTableRecord
100
AcDbBlockTableRecord
  2
*D8
340
0
  0
BLOCK_RECORD
  5
26C
330
1
100
AcDbSymbolTableRecord
100
AcDbBlockTableRecord
  2
*D9
340
0
  0
BLOCK_RECORD
  5
35F
330
1
100
AcDbSymbolTableRecord
100
AcDbBlockTableRecord
  2
*U10
340
0
102
{BLKREFS
331
36C
102
}
  0
ENDTAB
  0
ENDSEC
  0
SECTION
  2
BLOCKS
  0
BLOCK
  5
22
330
21
100
AcDbEntity
  8
0
100
AcDbBlockBegin
  2
*Model_Space
 70
     0
 10
0.0
 20
0.0
 30
0.0
  3
*Model_Space
  1

  0
ENDBLK
  5
23
330
21
100
AcDbEntity
  8
0
100
AcDbBlockEnd
  0
BLOCK
  5
1E
330
1D
100
AcDbEntity
 67
     1
  8
0
100
AcDbBlockBegin
  2
*Paper_Space
 70
     0
 10
0.0
 20
0.0
 30
0.0
  3
*Paper_Space
  1

  0
ENDBLK
  5
1F
330
1D
100
AcDbEntity
 67
     1
  8
0
100
AcDbBlockEnd
  0
BLOCK
  5
26
330
25
100
AcDbEntity
  8
0
100
AcDbBlockBegin
  2
*Paper_Space0
 70
     0
 10
0.0
 20
0.0
 30
0.0
  3
*Paper_Space0
  1

  0
ENDBLK
  5
27
330
25
100
AcDbEntity
  8
0
100
AcDbBlockEnd
  0
BLOCK
  5
1BC
330
1B1
100
AcDbEntity
  8
0
100
AcDbBlockBegin
  2
*D1
 70
     1
 10
0.0
 20
0.0
 30
0.0
  3
*D1
  1

  0
LINE
  5
31C
330
1B1
100
AcDbEntity
  8
0
 62
     0
370
    -2
100
AcDbLine
 10
279.6516155770135
 20
339.4486692234092
 30
0.0
 11
279.6516155770135
 21
332.7532508633016
 31
0.0
  0
LINE
  5
31D
330
1B1
100
AcDbEntity
  8
0
 62
     0
370
    -2
100
AcDbLine
 10
301.2952368567019
 20
339.4486692234092
 30
0.0
 11
301.2952368567019
 21
332.7532508633016
 31
0.0
  0
LINE
  5
31E
330
1B1
100
AcDbEntity
  8
0
 62
     0
370
    -2
100
AcDbLine
 10
280.1516155770134
 20
332.9332508633016
 30
0.0
 11
288.9667595501911
 21
332.9332508633016
 31
0.0
  0
LINE
  5
31F
330
1B1
100
AcDbEntity
  8
0
 62
     0
370
    -2
100
AcDbLine
 10
300.7952368567019
 20
332.9332508633016
 30
0.0
 11
291.9800928835244
 21
332.9332508633016
 31
0.0
  0
SOLID
  5
320
330
1B1
100
AcDbEntity
  8
0
 62
     0
100
AcDbTrace
 10
280.1516155770134
 20
333.016584196635
 30
0.0
 11
280.1516155770134
 21
332.8499175299683
 31
0.0
 12
279.6516155770135
 22
332.9332508633016
 32
0.0
 13
279.6516155770135
 23
332.9332508633016
 33
0.0
  0
SOLID
  5
321
330
1B1
100
AcDbEntity
  8
0
 62
     0
100
AcDbTrace
 10
300.7952368567019
 20
333.016584196635
 30
0.0
 11
300.7952368567019
 21
332.8499175299683
 31
0.0
 12
301.2952368567019
 22
332.9332508633016
 32
0.0
 13
301.2952368567019
 23
332.9332508633016
 33
0.0
  0
MTEXT
  5
322
330
1B1
100
AcDbEntity
  8
0
 62
     0
100
AcDbMText
 10
290.4734262168577
 20
332.9332508633016
 30
0.0
 40
0.5
 41
0.0
 71
     5
 72
     1
  1
\A1;21.6436
 73
     1
 44
1.0
  0
POINT
  5
323
330
1B1
100
AcDbEntity
  8
Defpoints
 62
     0
100
AcDbPoint
 10
279.6516155770135
 20
339.5111692234093
 30
0.0
  0
POINT
  5
324
330
1B1
100
AcDbEntity
  8
Defpoints
 62
     0
100
AcDbPoint
 10
301.2952368567019
 20
339.5111692234093
 30
0.0
  0
POINT
  5
325
330
1B1
100
AcDbEntity
  8
Defpoints
 62
     0
100
AcDbPoint
 10
301.2952368567019
 20
332.9332508633016
 30
0.0
  0
ENDBLK
  5
1BD
330
1B1
100
AcDbEntity
  8
0
100
AcDbBlockEnd
  0
BLOCK
  5
1D7
330
1CC
100
AcDbEntity
  8
0
100
AcDbBlockBegin
  2
*D2
 70
     1
 10
0.0
 20
0.0
 30
0.0
  3
*D2
  1

  0
LINE
  5
312
330
1CC
100
AcDbEntity
  8
0
 62
     0
370
    -2
100
AcDbLine
 10
279.3761941877396
 20
339.4583080215973
 30
0.0
 11
279.3761941877396
 21
330.8553664077708
 31
0.0
  0
LINE
  5
313
330
1CC
100
AcDbEntity
  8
0
 62
     0
370
    -2
100
AcDbLine
 10
301.5706582459757
 20
339.4583080215981
 30
0.0
 11
301.5706582459757
 21
330.8553664077708
 31
0.0
  0
LINE
  5
314
330
1CC
100
AcDbEntity
  8
0
 62
     0
370
    -2
100
AcDbLine
 10
279.8761941877395
 20
331.0353664077708
 30
0.0
 11
289.0497016965089
 21
331.0353664077708
 31
0.0
  0
LINE
  5
315
330
1CC
100
AcDbEntity
  8
0
 62
     0
370
    -2
100
AcDbLine
 10
301.0706582459757
 20
331.0353664077708
 30
0.0
 11
292.0630350298423
 21
331.0353664077708
 31
0.0
  0
SOLID
  5
316
330
1CC
100
AcDbEntity
  8
0
 62
     0
100
AcDbTrace
 10
279.8761941877395
 20
331.1186997411041
 30
0.0
 11
279.8761941877395
 21
330.9520330744375
 31
0.0
 12
279.3761941877396
 22
331.0353664077708
 32
0.0
 13
279.3761941877396
 23
331.0353664077708
 33
0.0
  0
SOLID
  5
317
330
1CC
100
AcDbEntity
  8
0
 62
     0
100
AcDbTrace
 10
301.0706582459757
 20
331.1186997411041
 30
0.0
 11
301.0706582459757
 21
330.9520330744375
 31
0.0
 12
301.5706582459757
 22
331.0353664077708
 32
0.0
 13
301.5706582459757
 23
331.0353664077708
 33
0.0
  0
MTEXT
  5
318
330
1CC
100
AcDbEntity
  8
0
 62
     0
100
AcDbMText
 10
290.5563683631756
 20
331.0353664077708
 30
0.0
 40
0.5
 41
0.0
 71
     5
 72
     1
  1
\A1;22.1945
 73
     1
 44
1.0
  0
POINT
  5
319
330
1CC
100
AcDbEntity
  8
Defpoints
 62
     0
100
AcDbPoint
 10
279.3761941877396
 20
339.5208080215973
 30
0.0
  0
POINT
  5
31A
330
1CC
100
AcDbEntity
  8
Defpoints
 62
     0
100
AcDbPoint
 10
301.5706582459757
 20
339.5208080215981
 30
0.0
  0
POINT
  5
31B
330
1CC
100
AcDbEntity
  8
Defpoints
 62
     0
100
AcDbPoint
 10
301.5706582459757
 20
331.0353664077708
 30
0.0
  0
ENDBLK
  5
1D8
330
1CC
100
AcDbEntity
  8
0
100
AcDbBlockEnd
  0
BLOCK
  5
1FB
330
1F0
100
AcDbEntity
  8
0
100
AcDbBlockBegin
  2
*D3
 70
     1
 10
0.0
 20
0.0
 30
0.0
  3
*D3
  1

  0
LINE
  5
34E
330
1F0
100
AcDbEntity
  8
0
 62
     0
370
    -2
100
AcDbLine
 10
290.5359262168579
 20
354.5269127768077
 30
0.0
 11
304.5515625786102
 21
354.5269127768077
 31
0.0
  0
LINE
  5
34F
330
1F0
100
AcDbEntity
  8
0
 62
     0
370
    -2
100
AcDbLine
 10
297.2264160175956
 20
335.2327372505874
 30
0.0
 11
304.5515625786102
 21
335.2327372505874
 31
0.0
  0
LINE
  5
350
330
1F0
100
AcDbEntity
  8
0
 62
     0
370
    -2
100
AcDbLine
 10
304.3715625786102
 20
354.0269127768077
 30
0.0
 11
304.3715625786102
 21
346.3864916803642
 31
0.0
  0
LINE
  5
351
330
1F0
100
AcDbEntity
  8
0
 62
     0
370
    -2
100
AcDbLine
 10
304.3715625786102
 20
335.7327372505874
 30
0.0
 11
304.3715625786102
 21
343.3731583470309
 31
0.0
  0
SOLID
  5
352
330
1F0
100
AcDbEntity
  8
0
 62
     0
100
AcDbTrace
 10
304.2882292452769
 20
354.0269127768077
 30
0.0
 11
304.4548959119436
 21
354.0269127768077
 31
0.0
 12
304.3715625786102
 22
354.5269127768077
 32
0.0
 13
304.3715625786102
 23
354.5269127768077
 33
0.0
  0
SOLID
  5
353
330
1F0
100
AcDbEntity
  8
0
 62
     0
100
AcDbTrace
 10
304.2882292452769
 20
335.7327372505874
 30
0.0
 11
304.4548959119436
 21
335.7327372505874
 31
0.0
 12
304.3715625786102
 22
335.2327372505874
 32
0.0
 13
304.3715625786102
 23
335.2327372505874
 33
0.0
  0
MTEXT
  5
354
330
1F0
100
AcDbEntity
  8
0
 62
     0
100
AcDbMText
 10
304.3715625786102
 20
344.8798250136976
 30
0.0
 40
0.5
 41
0.0
 71
     5
 72
     1
  1
\A1;19.2942
 11
0.0000000000000001
 21
1.0
 31
0.0
 73
     1
 44
1.0
  0
POINT
  5
355
330
1F0
100
AcDbEntity
  8
Defpoints
 62
     0
100
AcDbPoint
 10
290.4734262168578
 20
354.5269127768077
 30
0.0
  0
POINT
  5
356
330
1F0
100
AcDbEntity
  8
Defpoints
 62
     0
100
AcDbPoint
 10
297.1639160175957
 20
335.2327372505874
 30
0.0
  0
POINT
  5
357
330
1F0
100
AcDbEntity
  8
Defpoints
 62
     0
100
AcDbPoint
 10
304.3715625786102
 20
335.2327372505874
 30
0.0
  0
ENDBLK
  5
1FC
330
1F0
100
AcDbEntity
  8
0
100
AcDbBlockEnd
  0
BLOCK
  5
215
330
20A
100
AcDbEntity
  8
0
100
AcDbBlockBegin
  2
*D4
 70
     1
 10
0.0
 20
0.0
 30
0.0
  3
*D4
  1

  0
LINE
  5
344
330
20A
100
AcDbEntity
  8
0
 62
     0
370
    -2
100
AcDbLine
 10
290.5359262168579
 20
354.8025027768078
 30
0.0
 11
307.2727252076365
 21
354.8025027768078
 31
0.0
  0
LINE
  5
345
330
20A
100
AcDbEntity
  8
0
 62
     0
370
    -2
100
AcDbLine
 10
297.2264160175956
 20
334.9571472505875
 30
0.0
 11
307.2727252076365
 21
334.9571472505875
 31
0.0
  0
LINE
  5
346
330
20A
100
AcDbEntity
  8
0
 62
     0
370
    -2
100
AcDbLine
 10
307.0927252076364
 20
354.3025027768077
 30
0.0
 11
307.0927252076364
 21
346.3864916803643
 31
0.0
  0
LINE
  5
347
330
20A
100
AcDbEntity
  8
0
 62
     0
370
    -2
100
AcDbLine
 10
307.0927252076364
 20
335.4571472505875
 30
0.0
 11
307.0927252076364
 21
343.373158347031
 31
0.0
  0
SOLID
  5
348
330
20A
100
AcDbEntity
  8
0
 62
     0
100
AcDbTrace
 10
307.0093918743031
 20
354.3025027768077
 30
0.0
 11
307.1760585409697
 21
354.3025027768077
 31
0.0
 12
307.0927252076364
 22
354.8025027768078
 32
0.0
 13
307.0927252076364
 23
354.8025027768078
 33
0.0
  0
SOLID
  5
349
330
20A
100
AcDbEntity
  8
0
 62
     0
100
AcDbTrace
 10
307.0093918743031
 20
335.4571472505875
 30
0.0
 11
307.1760585409697
 21
335.4571472505875
 31
0.0
 12
307.0927252076364
 22
334.9571472505875
 32
0.0
 13
307.0927252076364
 23
334.9571472505875
 33
0.0
  0
MTEXT
  5
34A
330
20A
100
AcDbEntity
  8
0
 62
     0
100
AcDbMText
 10
307.0927252076364
 20
344.8798250136977
 30
0.0
 40
0.5
 41
0.0
 71
     5
 72
     1
  1
\A1;19.8454
 11
0.0000000000000001
 21
1.0
 31
0.0
 73
     1
 44
1.0
  0
POINT
  5
34B
330
20A
100
AcDbEntity
  8
Defpoints
 62
     0
100
AcDbPoint
 10
290.4734262168578
 20
354.8025027768078
 30
0.0
  0
POINT
  5
34C
330
20A
100
AcDbEntity
  8
Defpoints
 62
     0
100
AcDbPoint
 10
297.1639160175957
 20
334.9571472505875
 30
0.0
  0
POINT
  5
34D
330
20A
100
AcDbEntity
  8
Defpoints
 62
     0
100
AcDbPoint
 10
307.0927252076364
 20
334.9571472505875
 30
0.0
  0
ENDBLK
  5
216
330
20A
100
AcDbEntity
  8
0
100
AcDbBlockEnd
  0
BLOCK
  5
22B
330
224
100
AcDbEntity
  8
0
100
AcDbBlockBegin
  2
*D5
 70
     1
 10
0.0
 20
0.0
 30
0.0
  3
*D5
  1

  0
LINE
  5
32B
330
224
100
AcDbEntity
  8
0
 62
     0
370
    -2
100
AcDbLine
 10
299.4185024756347
 20
337.189925649482
 30
0.0
 11
299.7782175957008
 21
336.8426432969275
 31
0.0
  0
MTEXT
  5
32C
330
224
100
AcDbEntity
  8
0
 62
     0
100
AcDbMText
 10
298.3345609138354
 20
338.236403138513
 30
0.0
 40
0.5
 41
0.0
 71
     5
 72
     1
  1
\A1;R4.1339
 11
0.7194302401322588
 21
-0.6945647051090637
 31
0.0
 73
     1
 44
1.0
  0
SOLID
  5
32D
330
224
100
AcDbEntity
  8
0
 62
     0
100
AcDbTrace
 10
299.8360979877933
 20
336.9025958169385
 30
0.0
 11
299.7203372036084
 21
336.7826907769166
 31
0.0
 12
300.1379327157669
 22
336.495360944373
 32
0.0
 13
300.1379327157669
 23
336.495360944373
 33
0.0
  0
POINT
  5
32E
330
224
100
AcDbEntity
  8
Defpoints
 62
     0
100
AcDbPoint
 10
300.1379327157669
 20
336.495360944373
 30
0.0
  0
POINT
  5
32F
330
224
100
AcDbEntity
  8
Defpoints
 62
     0
100
AcDbPoint
 10
297.1639160175961
 20
339.3665872505881
 30
0.0
  0
ENDBLK
  5
22C
330
224
100
AcDbEntity
  8
0
100
AcDbBlockEnd
  0
BLOCK
  5
23D
330
236
100
AcDbEntity
  8
0
100
AcDbBlockBegin
  2
*D6
 70
     1
 10
0.0
 20
0.0
 30
0.0
  3
*D6
  1

  0
LINE
  5
33F
330
236
100
AcDbEntity
  8
0
 62
     0
370
    -2
100
AcDbLine
 10
283.7025933296415
 20
350.7808307067074
 30
0.0
 11
282.7343285322209
 21
351.8906518517663
 31
0.0
  0
MTEXT
  5
340
330
236
100
AcDbEntity
  8
0
 62
     0
100
AcDbMText
 10
284.7478850150714
 20
349.5827216580932
 30
0.0
 40
0.5
 41
0.0
 71
     5
 72
     1
  1
\A1;R7.2835
 11
0.6574161543583845
 21
-0.7535277035309537
 31
0.0
 73
     1
 44
1.0
  0
SOLID
  5
341
330
236
100
AcDbEntity
  8
0
 62
     0
100
AcDbTrace
 10
282.7971225075152
 20
351.9454365312962
 30
0.0
 11
282.6715345569267
 21
351.8358671722364
 31
0.0
 12
282.4056204550418
 22
352.2674157035318
 32
0.0
 13
282.4056204550418
 23
352.2674157035318
 33
0.0
  0
POINT
  5
342
330
236
100
AcDbEntity
  8
Defpoints
 62
     0
100
AcDbPoint
 10
282.4056204550418
 20
352.2674157035318
 30
0.0
  0
POINT
  5
343
330
236
100
AcDbEntity
  8
Defpoints
 62
     0
100
AcDbPoint
 10
287.1938781445034
 20
346.7791343512491
 30
0.0
  0
ENDBLK
  5
23E
330
236
100
AcDbEntity
  8
0
100
AcDbBlockEnd
  0
BLOCK
  5
24F
330
248
100
AcDbEntity
  8
0
100
AcDbBlockBegin
  2
*D7
 70
     1
 10
0.0
 20
0.0
 30
0.0
  3
*D7
  1

  0
LINE
  5
33A
330
248
100
AcDbEntity
  8
0
 62
     0
370
    -2
100
AcDbLine
 10
289.9742752067373
 20
353.5200278055071
 30
0.0
 11
289.960484467067
 21
354.0198375848226
 31
0.0
  0
MTEXT
  5
33B
330
248
100
AcDbEntity
  8
0
 62
     0
100
AcDbMText
 10
290.0215774438063
 20
351.8056802624552
 30
0.0
 40
0.5
 41
0.0
 71
     5
 72
     1
  1
\A1;R19.0973
 11
0.0275814793405384
 21
-0.9996195586308759
 31
0.0
 73
     1
 44
1.0
  0
SOLID
  5
33C
330
248
100
AcDbEntity
  8
0
 62
     0
100
AcDbTrace
 10
290.0437860969529
 20
354.0221360414343
 30
0.0
 11
289.8771828371812
 21
354.0175391282108
 31
0.0
 12
289.9466937273968
 22
354.519647364138
 32
0.0
 13
289.9466937273968
 23
354.519647364138
 33
0.0
  0
POINT
  5
33D
330
248
100
AcDbEntity
  8
Defpoints
 62
     0
100
AcDbPoint
 10
289.9466937273968
 20
354.519647364138
 30
0.0
  0
POINT
  5
33E
330
248
100
AcDbEntity
  8
Defpoints
 62
     0
100
AcDbPoint
 10
290.4734262168577
 20
335.4295872505876
 30
0.0
  0
ENDBLK
  5
250
330
248
100
AcDbEntity
  8
0
100
AcDbBlockEnd
  0
BLOCK
  5
261
330
25A
100
AcDbEntity
  8
0
100
AcDbBlockBegin
  2
*D8
 70
     1
 10
0.0
 20
0.0
 30
0.0
  3
*D8
  1

  0
LINE
  5
326
330
25A
100
AcDbEntity
  8
0
 62
     0
370
    -2
100
AcDbLine
 10
297.3927543908804
 20
350.9160295609054
 30
0.0
 11
298.2338334484473
 21
351.8719817962055
 31
0.0
  0
MTEXT
  5
327
330
25A
100
AcDbEntity
  8
0
 62
     0
100
AcDbMText
 10
296.342467875437
 20
349.7222966613513
 30
0.0
 40
0.5
 41
0.0
 71
     5
 72
     1
  1
\A1;R7.2835
 11
0.6605575568826162
 21
0.750775408524593
 31
0.0
 73
     1
 44
1.0
  0
SOLID
  5
328
330
25A
100
AcDbEntity
  8
0
 62
     0
100
AcDbTrace
 10
298.1712688310703
 20
351.9270282592791
 30
0.0
 11
298.2963980658244
 21
351.816935333132
 31
0.0
 12
298.5641122268887
 22
352.2473695004677
 32
0.0
 13
298.5641122268887
 23
352.2473695004677
 33
0.0
  0
POINT
  5
329
330
25A
100
AcDbEntity
  8
Defpoints
 62
     0
100
AcDbPoint
 10
298.5641122268887
 20
352.2473695004677
 30
0.0
  0
POINT
  5
32A
330
25A
100
AcDbEntity
  8
Defpoints
 62
     0
100
AcDbPoint
 10
293.7529742892119
 20
346.7791343512492
 30
0.0
  0
ENDBLK
  5
262
330
25A
100
AcDbEntity
  8
0
100
AcDbBlockEnd
  0
BLOCK
  5
277
330
26C
100
AcDbEntity
  8
0
100
AcDbBlockBegin
  2
*D9
 70
     1
 10
0.0
 20
0.0
 30
0.0
  3
*D9
  1

  0
ARC
  5
330
330
26C
100
AcDbEntity
  8
0
 62
     0
370
    -2
100
AcDbCircle
 10
279.5018852221692
 20
335.2327372505875
 30
0.0
 40
6.077831803366576
100
AcDbArc
 50
4.714835029365636
 51
37.63725538631827
  0
ARC
  5
331
330
26C
100
AcDbEntity
  8
0
 62
     0
370
    -2
100
AcDbCircle
 10
279.5018852221692
 20
335.2327372505875
 30
0.0
 40
6.077831803366576
100
AcDbArc
 50
50.35840805853125
 51
83.28082841548392
  0
SOLID
  5
332
330
26C
100
AcDbEntity
  8
0
 62
     0
100
AcDbTrace
 10
285.642413287109
 20
335.7357418462217
 30
0.0
 11
285.4758876743858
 21
335.7288863312922
 31
0.0
 12
285.5797170255357
 22
335.2327372505874
 32
0.0
 13
285.5797170255357
 23
335.2327372505874
 33
0.0
  0
SOLID
  5
333
330
26C
100
AcDbEntity
  8
0
 62
     0
100
AcDbTrace
 10
280.2066723084454
 20
341.1857318224305
 30
0.0
 11
280.2193478852815
 21
341.3519157793267
 31
0.0
 12
279.7144582261751
 22
341.3068505313868
 32
0.0
 13
279.7144582261751
 23
341.3068505313868
 33
0.0
  0
MTEXT
  5
334
330
26C
100
AcDbEntity
  8
0
 62
     0
100
AcDbMText
 10
283.874071311204
 20
339.454588530875
 30
0.0
 40
0.5
 41
0.0
 71
     5
 72
     1
  1
\A1;88°
 11
0.6946311475662979
 21
-0.7193660881850966
 31
0.0
 73
     1
 44
1.0
  0
POINT
  5
335
330
26C
100
AcDbEntity
  8
Defpoints
 62
     0
100
AcDbPoint
 10
284.8005193744155
 20
338.2100708816514
 30
0.0
  0
POINT
  5
336
330
26C
100
AcDbEntity
  8
Defpoints
 62
     0
100
AcDbPoint
 10
279.6516155770134
 20
339.5111692234093
 30
0.0
  0
POINT
  5
337
330
26C
100
AcDbEntity
  8
Defpoints
 62
     0
100
AcDbPoint
 10
283.7829364161198
 20
335.2327372505874
 30
0.0
  0
POINT
  5
338
330
26C
100
AcDbEntity
  8
Defpoints
 62
     0
100
AcDbPoint
 10
297.1639160175957
 20
335.2327372505875
 30
0.0
  0
POINT
  5
339
330
26C
100
AcDbEntity
  8
Defpoints
 62
     0
100
AcDbPoint
 10
279.9148842851253
 20
347.0338740176496
 30
0.0
  0
ENDBLK
  5
278
330
26C
100
AcDbEntity
  8
0
100
AcDbBlockEnd
  0
BLOCK
  5
363
330
35F
100
AcDbEntity
  8
0
100
AcDbBlockBegin
  2
*U10
 70
     1
 10
0.0
 20
0.0
 30
0.0
  3
*U10
  1

  0
TEXT
  5
360
330
35F
100
AcDbEntity
  8
0
100
AcDbText
 10
1.9327459004445
 20
-2.486795878345354
 30
0.0
 40
0.5
  1
NOTE: CHECK ALL DXF FILES BEFORE USING.
100
AcDbText
  0
TEXT
  5
361
330
35F
100
AcDbEntity
  8
0
100
AcDbText
 10
1.9327459004445
 20
-3.320129211678687
 30
0.0
 40
0.5
  1
DOMAIN INDUSTRIES DOES NOT WARRANT AND
100
AcDbText
  0
TEXT
  5
362
330
35F
100
AcDbEntity
  8
0
100
AcDbText
 10
1.9327459004445
 20
-4.153462545012019
 30
0.0
 40
0.5
  1
IS NOT LIABLE FOR ACCURACY OF DRAWING.
100
AcDbText
  0
ENDBLK
  5
364
330
35F
100
AcDbEntity
  8
0
100
AcDbBlockEnd
  0
ENDSEC
  0
SECTION
  2
ENTITIES
  0
ARC
  5
DF
102
{ACAD_REACTORS
330
1C9
330
234
102
}
330
21
100
AcDbEntity
  8
\M+5D0E9\M+5CFDF
 48
0.05
370
    35
100
AcDbCircle
 10
297.1639160175957
 20
339.3665872505875
 30
0.0
 40
4.133849999999998
100
AcDbArc
 50
270.0
 51
2.004336555159397
  0
ARC
  5
E0
102
{ACAD_REACTORS
330
1E4
102
}
330
21
100
AcDbEntity
  8
0
370
    35
100
AcDbCircle
 10
297.1639160175957
 20
339.3665872505875
 30
0.0
 40
4.40944
100
AcDbArc
 50
270.0
 51
2.004336555159397
  0
LINE
  5
E1
102
{ACAD_REACTORS
330
1C9
102
}
330
21
100
AcDbEntity
  8
\M+5D0E9\M+5CFDF
 48
0.05
370
    35
100
AcDbLine
 10
301.2952368567021
 20
339.5111692234093
 30
0.0
 11
301.0319681485901
 21
347.0338740176496
 31
0.0
  0
LINE
  5
E2
330
21
100
AcDbEntity
  8
0
370
    35
100
AcDbLine
 10
301.5706582459757
 20
339.5208080215973
 30
0.0
 11
301.3073895378639
 21
347.0435128158378
 31
0.0
  0
LINE
  5
E3
102
{ACAD_REACTORS
330
208
330
284
102
}
330
21
100
AcDbEntity
  8
\M+5D0E9\M+5CFDF
 48
0.05
370
    35
100
AcDbLine
 10
283.7829364161198
 20
335.2327372505874
 30
0.0
 11
297.1639160175957
 21
335.2327372505874
 31
0.0
  0
LINE
  5
E4
102
{ACAD_REACTORS
330
222
102
}
330
21
100
AcDbEntity
  8
0
370
    35
100
AcDbLine
 10
283.7829364161198
 20
334.9571472505875
 30
0.0
 11
297.1639160175957
 21
334.9571472505875
 31
0.0
  0
ARC
  5
E5
102
{ACAD_REACTORS
330
1C9
102
}
330
21
100
AcDbEntity
  8
\M+5D0E9\M+5CFDF
 48
0.05
370
    35
100
AcDbCircle
 10
283.7829364161198
 20
339.3665872505875
 30
0.0
 40
4.133849999999998
100
AcDbArc
 50
177.9956634448405
 51
270.0
  0
ARC
  5
E6
330
21
100
AcDbEntity
  8
0
370
    35
100
AcDbCircle
 10
283.7829364161198
 20
339.3665872505875
 30
0.0
 40
4.40944
100
AcDbArc
 50
177.9956634448405
 51
270.0
  0
LINE
  5
E7
102
{ACAD_REACTORS
330
1C9
330
284
102
}
330
21
100
AcDbEntity
  8
\M+5D0E9\M+5CFDF
 48
0.05
370
    35
100
AcDbLine
 10
279.6516155770134
 20
339.5111692234093
 30
0.0
 11
279.9148842851252
 21
347.0338740176496
 31
0.0
  0
LINE
  5
E8
102
{ACAD_REACTORS
330
1E4
102
}
330
21
100
AcDbEntity
  8
0
370
    35
100
AcDbLine
 10
279.3761941877396
 20
339.5208080215973
 30
0.0
 11
279.6394628958519
 21
347.0435128158378
 31
0.0
  0
ARC
  5
E9
102
{ACAD_REACTORS
330
246
102
}
330
21
100
AcDbEntity
  8
\M+5D0E9\M+5CFDF
 48
0.05
370
    35
100
AcDbCircle
 10
287.1938781445033
 20
346.7791343512493
 30
0.0
 40
7.28345
100
AcDbArc
 50
106.117099210121
 51
177.9956634448405
  0
ARC
  5
EA
330
21
100
AcDbEntity
  8
0
370
    35
100
AcDbCircle
 10
287.1938781445033
 20
346.7791343512493
 30
0.0
 40
7.559039999999999
100
AcDbArc
 50
106.117099210121
 51
177.9956634448405
  0
ARC
  5
EB
102
{ACAD_REACTORS
330
208
330
258
102
}
330
21
100
AcDbEntity
  8
\M+5D0E9\M+5CFDF
 48
0.05
370
    35
100
AcDbCircle
 10
290.4734262168578
 20
335.4295872505874
 30
0.0
 40
19.09732552622029
100
AcDbArc
 50
73.88290078987889
 51
106.117099210121
  0
ARC
  5
EC
102
{ACAD_REACTORS
330
222
102
}
330
21
100
AcDbEntity
  8
0
370
    35
100
AcDbCircle
 10
290.4734262168578
 20
335.4295872505874
 30
0.0
 40
19.3729155262203
100
AcDbArc
 50
73.88290078987889
 51
106.117099210121
  0
ARC
  5
ED
102
{ACAD_REACTORS
330
26A
102
}
330
21
100
AcDbEntity
  8
\M+5D0E9\M+5CFDF
 48
0.05
370
    35
100
AcDbCircle
 10
293.7529742892119
 20
346.7791343512493
 30
0.0
 40
7.28345
100
AcDbArc
 50
2.004336555159397
 51
73.88290078987889
  0
ARC
  5
EE
330
21
100
AcDbEntity
  8
0
370
    35
100
AcDbCircle
 10
293.7529742892119
 20
346.7791343512493
 30
0.0
 40
7.559039999999999
100
AcDbArc
 50
2.004336555159397
 51
73.88290078987889
  0
DIMENSION
  5
1B0
102
{ACAD_XDICTIONARY
360
1BE
102
}
102
{ACAD_REACTORS
330
1C9
102
}
330
21
100
AcDbEntity
  8
0
 62
     3
100
AcDbDimension
  2
*D1
 10
301.2952368567019
 20
332.9332508633016
 30
0.0
 11
290.4734262168577
 21
332.9332508633016
 31
0.0
 70
    32
 71
     5
 42
21.64362127968848
  3
Standard
100
AcDbAlignedDimension
 13
279.6516155770135
 23
339.5111692234093
 33
0.0
 14
301.2952368567019
 24
339.5111692234093
 34
0.0
100
AcDbRotatedDimension
1001
ACAD
1000
DSTYLE
1002
{
1070
    41
1040
0.5
1070
    73
1070
     0
1070
    74
1070
     0
1070
   140
1040
0.5
1070
   172
1070
     1
1002
}
  0
DIMENSION
  5
1CB
102
{ACAD_XDICTIONARY
360
1D9
102
}
102
{ACAD_REACTORS
330
1E4
102
}
330
21
100
AcDbEntity
  8
0
 62
     3
100
AcDbDimension
  2
*D2
 10
301.5706582459757
 20
331.0353664077708
 30
0.0
 11
290.5563683631756
 21
331.0353664077708
 31
0.0
 70
   160
 71
     5
 42
22.19446405823617
  3
Standard
100
AcDbAlignedDimension
 13
279.3761941877396
 23
339.5208080215973
 33
0.0
 14
301.5706582459757
 24
339.5208080215981
 34
0.0
100
AcDbRotatedDimension
1001
ACAD
1000
DSTYLE
1002
{
1070
    41
1040
0.5
1070
    73
1070
     0
1070
    74
1070
     0
1070
   140
1040
0.5
1070
   172
1070
     1
1002
}
  0
DIMENSION
  5
1EF
102
{ACAD_XDICTIONARY
360
1FD
102
}
102
{ACAD_REACTORS
330
208
102
}
330
21
100
AcDbEntity
  8
0
 62
     3
100
AcDbDimension
  2
*D3
 10
304.3715625786102
 20
335.2327372505874
 30
0.0
 11
304.3715625786102
 21
344.8798250136976
 31
0.0
 70
    32
 71
     5
 42
19.29417552622027
  3
Standard
100
AcDbAlignedDimension
 13
290.4734262168578
 23
354.5269127768077
 33
0.0
 14
297.1639160175957
 24
335.2327372505874
 34
0.0
 50
90.0
100
AcDbRotatedDimension
1001
ACAD
1000
DSTYLE
1002
{
1070
    41
1040
0.5
1070
    73
1070
     0
1070
    74
1070
     0
1070
   140
1040
0.5
1070
   172
1070
     1
1002
}
  0
DIMENSION
  5
209
102
{ACAD_XDICTIONARY
360
217
102
}
102
{ACAD_REACTORS
330
222
102
}
330
21
100
AcDbEntity
  8
0
 62
     3
100
AcDbDimension
  2
*D4
 10
307.0927252076364
 20
334.9571472505875
 30
0.0
 11
307.0927252076364
 21
344.8798250136977
 31
0.0
 70
    32
 71
     5
 42
19.84535552622025
  3
Standard
100
AcDbAlignedDimension
 13
290.4734262168578
 23
354.8025027768078
 33
0.0
 14
297.1639160175957
 24
334.9571472505875
 34
0.0
 50
90.0
100
AcDbRotatedDimension
1001
ACAD
1000
DSTYLE
1002
{
1070
    41
1040
0.5
1070
    73
1070
     0
1070
    74
1070
     0
1070
   140
1040
0.5
1070
   172
1070
     1
1002
}
  0
DIMENSION
  5
223
102
{ACAD_XDICTIONARY
360
22D
102
}
102
{ACAD_REACTORS
330
234
102
}
330
21
100
AcDbEntity
  8
0
 62
     3
100
AcDbDimension
  2
*D5
 10
297.1639160175961
 20
339.3665872505881
 30
0.0
 11
298.3345609138354
 21
338.236403138513
 31
0.0
 70
   164
 71
     5
 42
4.133850000000052
  3
Standard
100
AcDbRadialDimension
 15
300.1379327157669
 25
336.495360944373
 35
0.0
 40
0.0
1001
ACAD
1000
DSTYLE
1002
{
1070
    41
1040
0.5
1070
    73
1070
     0
1070
    74
1070
     0
1070
   140
1040
0.5
1070
   172
1070
     1
1002
}
  0
DIMENSION
  5
235
102
{ACAD_XDICTIONARY
360
23F
102
}
102
{ACAD_REACTORS
330
246
102
}
330
21
100
AcDbEntity
  8
0
 62
     3
100
AcDbDimension
  2
*D6
 10
287.1938781445034
 20
346.7791343512491
 30
0.0
 11
284.7478850150714
 21
349.5827216580932
 31
0.0
 70
   164
 71
     5
 42
7.283450000000158
  3
Standard
100
AcDbRadialDimension
 15
282.4056204550418
 25
352.2674157035318
 35
0.0
 40
0.0
1001
ACAD
1000
DSTYLE
1002
{
1070
    41
1040
0.5
1070
    73
1070
     0
1070
    74
1070
     0
1070
   140
1040
0.5
1070
   172
1070
     1
1002
}
  0
DIMENSION
  5
247
102
{ACAD_XDICTIONARY
360
251
102
}
102
{ACAD_REACTORS
330
258
102
}
330
21
100
AcDbEntity
  8
0
 62
     3
100
AcDbDimension
  2
*D7
 10
290.4734262168577
 20
335.4295872505876
 30
0.0
 11
290.0215774438063
 21
351.8056802624552
 31
0.0
 70
   164
 71
     5
 42
19.09732552622017
  3
Standard
100
AcDbRadialDimension
 15
289.9466937273968
 25
354.519647364138
 35
0.0
 40
0.0
1001
ACAD
1000
DSTYLE
1002
{
1070
    41
1040
0.5
1070
    73
1070
     0
1070
    74
1070
     0
1070
   140
1040
0.5
1070
   172
1070
     1
1002
}
  0
DIMENSION
  5
259
102
{ACAD_XDICTIONARY
360
263
102
}
102
{ACAD_REACTORS
330
26A
102
}
330
21
100
AcDbEntity
  8
0
 62
     3
100
AcDbDimension
  2
*D8
 10
293.7529742892119
 20
346.7791343512492
 30
0.0
 11
296.342467875437
 21
349.7222966613513
 31
0.0
 70
   164
 71
     5
 42
7.283450000000186
  3
Standard
100
AcDbRadialDimension
 15
298.5641122268887
 25
352.2473695004677
 35
0.0
 40
0.0
1001
ACAD
1000
DSTYLE
1002
{
1070
    41
1040
0.5
1070
    73
1070
     0
1070
    74
1070
     0
1070
   140
1040
0.5
1070
   172
1070
     1
1002
}
  0
DIMENSION
  5
26B
102
{ACAD_XDICTIONARY
360
279
102
}
102
{ACAD_REACTORS
330
284
102
}
330
21
100
AcDbEntity
  8
0
 62
     3
100
AcDbDimension
  2
*D9
 10
279.9148842851252
 20
347.0338740176496
 30
0.0
 11
283.874071311204
 21
339.454588530875
 31
0.0
 70
    34
 71
     5
 42
1.535814054589441
  3
Standard
100
AcDb2LineAngularDimension
 13
283.7829364161198
 23
335.2327372505874
 33
0.0
 14
297.1639160175957
 24
335.2327372505874
 34
0.0
 15
279.6516155770134
 25
339.5111692234093
 35
0.0
 16
284.8005193744155
 26
338.2100708816514
 36
0.0
1001
ACAD
1000
DSTYLE
1002
{
1070
    41
1040
0.5
1070
    73
1070
     0
1070
    74
1070
     0
1070
   140
1040
0.5
1070
   172
1070
     1
1002
}
  0
TEXT
  5
35E
330
21
100
AcDbEntity
  8
0
100
AcDbText
 10
287.2667015846895
 20
343.7916815225739
 30
0.0
 40
1.0
  1
OM-2321D
100
AcDbText
  0
TEXT
  5
36B
330
21
100
AcDbEntity
  8
0
 62
     5
100
AcDbText
 10
280.9191861179204
 20
325.8518486981845
 30
0.0
 40
0.5
  1
(C)2009 DOMAIN INDUSTRIES, INC.
100
AcDbText
  0
INSERT
  5
36C
330
21
100
AcDbEntity
  8
0
100
AcDbBlockReference
  2
*U10
 10
279.0570642393836
 20
331.473019637073
 30
0.0
  0
ENDSEC
  0
SECTION
  2
OBJECTS
  0
DICTIONARY
  5
C
330
0
100
AcDbDictionary
281
     1
  3
ACAD_COLOR
350
1C
  3
ACAD_GROUP
350
D
  3
ACAD_LAYOUT
350
1A
  3
ACAD_MATERIAL
350
1B
  3
ACAD_MLINESTYLE
350
17
  3
ACAD_PLOTSETTINGS
350
19
  3
ACAD_PLOTSTYLENAME
350
E
  3
AcDbVariableDictionary
350
2FF
  3
ASE_INDEX_DICTIONARY
350
2FC
  0
DICTIONARY
  5
1BE
330
1B0
100
AcDbDictionary
280
     1
281
     1
  3
ACAD_DIMASSOC
360
1C9
  0
DICTIONARY
  5
1D9
330
1CB
100
AcDbDictionary
280
     1
281
     1
  3
ACAD_DIMASSOC
360
1E4
  0
DICTIONARY
  5
1FD
330
1EF
100
AcDbDictionary
280
     1
281
     1
  3
ACAD_DIMASSOC
360
208
  0
DICTIONARY
  5
217
330
209
100
AcDbDictionary
280
     1
281
     1
  3
ACAD_DIMASSOC
360
222
  0
DICTIONARY
  5
22D
330
223
100
AcDbDictionary
280
     1
281
     1
  3
ACAD_DIMASSOC
360
234
  0
DICTIONARY
  5
23F
330
235
100
AcDbDictionary
280
     1
281
     1
  3
ACAD_DIMASSOC
360
246
  0
DICTIONARY
  5
251
330
247
100
AcDbDictionary
280
     1
281
     1
  3
ACAD_DIMASSOC
360
258
  0
DICTIONARY
  5
263
330
259
100
AcDbDictionary
280
     1
281
     1
  3
ACAD_DIMASSOC
360
26A
  0
DICTIONARY
  5
279
330
26B
100
AcDbDictionary
280
     1
281
     1
  3
ACAD_DIMASSOC
360
284
  0
DICTIONARY
  5
1C
102
{ACAD_REACTORS
330
C
102
}
330
C
100
AcDbDictionary
281
     1
  0
DICTIONARY
  5
D
102
{ACAD_REACTORS
330
C
102
}
330
C
100
AcDbDictionary
281
     1
  0
DICTIONARY
  5
1A
102
{ACAD_REACTORS
330
C
102
}
330
C
100
AcDbDictionary
281
     1
  3
\M+5B2BC\M+5BED61
350
20
  3
\M+5B2BC\M+5BED62
350
28
  3
Model
350
24
  0
DICTIONARY
  5
1B
102
{ACAD_REACTORS
330
C
102
}
330
C
100
AcDbDictionary
281
     1
  0
DICTIONARY
  5
17
102
{ACAD_REACTORS
330
C
102
}
330
C
100
AcDbDictionary
281
     1
  3
Standard
350
18
  0
DICTIONARY
  5
19
102
{ACAD_REACTORS
330
C
102
}
330
C
100
AcDbDictionary
281
     1
  0
ACDBDICTIONARYWDFLT
  5
E
102
{ACAD_REACTORS
330
C
102
}
330
C
100
AcDbDictionary
281
     1
  3
Normal
350
F
100
AcDbDictionaryWithDefault
340
F
  0
DICTIONARY
  5
2FF
102
{ACAD_REACTORS
330
C
102
}
330
C
100
AcDbDictionary
281
     1
  3
DIMASSOC
350
301
  3
HIDETEXT
350
300
  3
PROJECTNAME
350
302
  0
DICTIONARY
  5
2FC
102
{ACAD_REACTORS
330
C
102
}
330
C
100
AcDbDictionary
281
     1
  3
ASEBlockHierarchyIndexRecord
350
2FE
1001
DCO15
1040
1619956071.812
  0
DIMASSOC
  5
1C9
102
{ACAD_REACTORS
330
1BE
102
}
330
1BE
100
AcDbDimAssoc
330
1B0
 90
        3
 70
     0
 71
     0
  1
AcDbOsnapPointRef
 72
     6
331
E7
 73
     2
 91
        0
 40
0.0000000000000003
 10
0.0
 20
0.0
 30
0.0
332
E5
 74
     2
 92
        0
 75
     0
  1
AcDbOsnapPointRef
 72
     6
331
E1
 73
     2
 91
        0
 40
0.0000000000000003
 10
0.0
 20
0.0
 30
0.0
332
DF
 74
     2
 92
        0
 75
     0
  0
DIMASSOC
  5
1E4
102
{ACAD_REACTORS
330
1D9
102
}
330
1D9
100
AcDbDimAssoc
330
1CB
 90
        3
 70
     0
 71
     0
  1
AcDbOsnapPointRef
 72
    13
331
E8
 73
     2
 91
        0
 40
0.0
 10
0.0
 20
0.0
 30
2.000000000000000E+50
 75
     0
  1
AcDbOsnapPointRef
 72
     1
331
E0
 73
     2
 91
        0
 40
6.318167579385192
 10
0.0
 20
0.0
 30
2.000000000000000E+50
 75
     0
  0
DIMASSOC
  5
208
102
{ACAD_REACTORS
330
1FD
102
}
330
1FD
100
AcDbDimAssoc
330
1EF
 90
        3
 70
     0
 71
     0
  1
AcDbOsnapPointRef
 72
     2
331
EB
 73
     2
 91
        0
 40
1.570796326794896
 10
0.0
 20
0.0
 30
0.0
 75
     0
  1
AcDbOsnapPointRef
 72
     1
331
E3
 73
     2
 91
        0
 40
1.0
 10
0.0
 20
0.0
 30
2.000000000000000E+50
 75
     0
  0
DIMASSOC
  5
222
102
{ACAD_REACTORS
330
217
102
}
330
217
100
AcDbDimAssoc
330
209
 90
        3
 70
     0
 71
     0
  1
AcDbOsnapPointRef
 72
     2
331
EC
 73
     2
 91
        0
 40
1.570796326794896
 10
0.0
 20
0.0
 30
0.0
 75
     0
  1
AcDbOsnapPointRef
 72
     1
331
E4
 73
     2
 91
        0
 40
1.0
 10
0.0
 20
0.0
 30
2.000000000000000E+50
 75
     0
  0
DIMASSOC
  5
234
102
{ACAD_REACTORS
330
22D
102
}
330
22D
100
AcDbDimAssoc
330
223
 90
        2
 70
     0
 71
     0
  1
AcDbOsnapPointRef
 72
     3
331
DF
 73
     2
 91
        0
 40
0.0
 10
0.0
 20
0.0
 30
0.0
 75
     0
  0
DIMASSOC
  5
246
102
{ACAD_REACTORS
330
23F
102
}
330
23F
100
AcDbDimAssoc
330
235
 90
        2
 70
     0
 71
     0
  1
AcDbOsnapPointRef
 72
     3
331
E9
 73
     2
 91
        0
 40
0.0
 10
0.0
 20
0.0
 30
0.0
 75
     0
  0
DIMASSOC
  5
258
102
{ACAD_REACTORS
330
251
102
}
330
251
100
AcDbDimAssoc
330
247
 90
        2
 70
     0
 71
     0
  1
AcDbOsnapPointRef
 72
     3
331
EB
 73
     2
 91
        0
 40
0.0
 10
0.0
 20
0.0
 30
0.0
 75
     0
  0
DIMASSOC
  5
26A
102
{ACAD_REACTORS
330
263
102
}
330
263
100
AcDbDimAssoc
330
259
 90
        2
 70
     0
 71
     0
  1
AcDbOsnapPointRef
 72
     3
331
ED
 73
     2
 91
        0
 40
0.0
 10
0.0
 20
0.0
 30
0.0
 75
     0
  0
DIMASSOC
  5
284
102
{ACAD_REACTORS
330
279
102
}
330
279
100
AcDbDimAssoc
330
26B
 90
       15
 70
     0
 71
     0
  1
AcDbOsnapPointRef
 72
    13
331
E3
 73
     2
 91
        0
 40
0.0
 10
0.0
 20
0.0
 30
2.000000000000000E+50
 75
     0
  1
AcDbOsnapPointRef
 72
     1
331
E3
 73
     2
 91
        0
 40
1.0
 10
0.0
 20
0.0
 30
2.000000000000000E+50
 75
     0
  1
AcDbOsnapPointRef
 72
    13
331
E7
 73
     2
 91
        0
 40
0.0
 10
0.0
 20
0.0
 30
2.000000000000000E+50
 75
     0
  1
AcDbOsnapPointRef
 72
     1
331
E7
 73
     2
 91
        0
 40
1.0
 10
0.0
 20
0.0
 30
2.000000000000000E+50
 75
     0
  0
LAYOUT
  5
20
102
{ACAD_XDICTIONARY
360
307
102
}
102
{ACAD_REACTORS
330
1A
102
}
330
1A
100
AcDbPlotSettings
  1

  2
\M+5D4DA BENNG \M+5C9CF\M+5D7D4\M+5B6AF FX DocuPrint 255-AP
  4

  6

 40
0.0
 41
0.0
 42
0.0
 43
0.0
 44
0.0
 45
0.0
 46
0.0
 47
0.0
 48
0.0
 49
0.0
140
0.0
141
0.0
142
1.0
143
1.0
 70
   688
 72
     0
 73
     0
 74
     5
  7

 75
    16
147
1.0
148
0.0
149
0.0
100
AcDbLayout
  1
\M+5B2BC\M+5BED61
 70
     1
 71
     1
 10
0.0
 20
0.0
 11
12.0
 21
9.0
 12
0.0
 22
0.0
 32
0.0
 14
1.000000000000000E+20
 24
1.000000000000000E+20
 34
1.000000000000000E+20
 15
-1.000000000000000E+20
 25
-1.000000000000000E+20
 35
-1.000000000000000E+20
146
0.0
 13
0.0
 23
0.0
 33
0.0
 16
1.0
 26
0.0
 36
0.0
 17
0.0
 27
1.0
 37
0.0
 76
     0
330
1D
  0
LAYOUT
  5
28
102
{ACAD_XDICTIONARY
360
30B
102
}
102
{ACAD_REACTORS
330
1A
102
}
330
1A
100
AcDbPlotSettings
  1

  2
\M+5D4DA BENNG \M+5C9CF\M+5D7D4\M+5B6AF FX DocuPrint 255-AP
  4

  6

 40
0.0
 41
0.0
 42
0.0
 43
0.0
 44
0.0
 45
0.0
 46
0.0
 47
0.0
 48
0.0
 49
0.0
140
0.0
141
0.0
142
1.0
143
1.0
 70
   688
 72
     0
 73
     0
 74
     5
  7

 75
    16
147
1.0
148
0.0
149
0.0
100
AcDbLayout
  1
\M+5B2BC\M+5BED62
 70
     1
 71
     2
 10
0.0
 20
0.0
 11
12.0
 21
9.0
 12
0.0
 22
0.0
 32
0.0
 14
0.0
 24
0.0
 34
0.0
 15
0.0
 25
0.0
 35
0.0
146
0.0
 13
0.0
 23
0.0
 33
0.0
 16
1.0
 26
0.0
 36
0.0
 17
0.0
 27
1.0
 37
0.0
 76
     0
330
25
  0
LAYOUT
  5
24
102
{ACAD_XDICTIONARY
360
309
102
}
102
{ACAD_REACTORS
330
1A
102
}
330
1A
100
AcDbPlotSettings
  1

  2
\M+5D4DA BENNG \M+5C9CF\M+5D7D4\M+5B6AF FX DocuPrint 255-AP
  4

  6

 40
0.0
 41
0.0
 42
0.0
 43
0.0
 44
0.0
 45
0.0
 46
0.0
 47
0.0
 48
0.0
 49
0.0
140
0.0
141
0.0
142
1.0
143
1.0
 70
  1712
 72
     0
 73
     0
 74
     0
  7

 75
     0
147
1.0
148
0.0
149
0.0
100
AcDbLayout
  1
Model
 70
     1
 71
     0
 10
0.0
 20
0.0
 11
12.0
 21
9.0
 12
0.0
 22
0.0
 32
0.0
 14
0.0
 24
0.0
 34
0.0
 15
0.0
 25
0.0
 35
0.0
146
0.0
 13
0.0
 23
0.0
 33
0.0
 16
1.0
 26
0.0
 36
0.0
 17
0.0
 27
1.0
 37
0.0
 76
     0
330
21
  0
MLINESTYLE
  5
18
102
{ACAD_REACTORS
330
17
102
}
330
17
100
AcDbMlineStyle
  2
STANDARD
 70
     0
  3

 62
   256
 51
90.0
 52
90.0
 71
     2
 49
0.5
 62
   256
  6
BYLAYER
 49
-0.5
 62
   256
  6
BYLAYER
  0
ACDBPLACEHOLDER
  5
F
102
{ACAD_REACTORS
330
E
102
}
330
E
  0
DICTIONARYVAR
  5
301
102
{ACAD_REACTORS
330
2FF
102
}
330
2FF
100
DictionaryVariables
280
     0
  1
2
  0
DICTIONARYVAR
  5
300
102
{ACAD_REACTORS
330
2FF
102
}
330
2FF
100
DictionaryVariables
280
     0
  1
1
  0
DICTIONARYVAR
  5
302
102
{ACAD_REACTORS
330
2FF
102
}
330
2FF
100
DictionaryVariables
280
     0
  1

  0
XRECORD
  5
2FE
102
{ACAD_REACTORS
330
2FC
102
}
330
2FC
100
AcDbXrecord
280
     1
  0
DICTIONARY
  5
307
330
20
100
AcDbDictionary
280
     1
281
     1
  3
ACAD_XREC_ROUNDTRIP
360
308
  0
DICTIONARY
  5
30B
330
28
100
AcDbDictionary
280
     1
281
     1
  3
ACAD_XREC_ROUNDTRIP
360
30C
  0
DICTIONARY
  5
309
330
24
100
AcDbDictionary
280
     1
281
     1
  3
ACAD_XREC_ROUNDTRIP
360
30A
  0
XRECORD
  5
308
102
{ACAD_REACTORS
330
307
102
}
330
307
100
AcDbXrecord
280
     1
102
SHADEPLOT
 70
     0
102
SHADEPLOTRESLEVEL
 70
     2
102
SHADEPLOTCUSTOMDPI
 70
   300
  0
XRECORD
  5
30C
102
{ACAD_REACTORS
330
30B
102
}
330
30B
100
AcDbXrecord
280
     1
102
SHADEPLOT
 70
     0
102
SHADEPLOTRESLEVEL
 70
     2
102
SHADEPLOTCUSTOMDPI
 70
   300
  0
XRECORD
  5
30A
102
{ACAD_REACTORS
330
309
102
}
330
309
100
AcDbXrecord
280
     1
102
SHADEPLOT
 70
     0
102
SHADEPLOTRESLEVEL
 70
     2
102
SHADEPLOTCUSTOMDPI
 70
   300
  0
ENDSEC
  0
EOF
