  0
SECTION
  2
HEADER
  9
$ACADVER
  1
AC1015
  9
$ACADMAINTVER
 70
    13
  9
$DWGCODEPAGE
  3
ANSI_1252
  9
$INSBASE
 10
0.0
 20
0.0
 30
0.0
  9
$EXTMIN
 10
312.5671872462594
 20
325.7558040642763
 30
-0.0000000349181948
  9
$EXTMAX
 10
341.1750946701877
 20
353.6206305390665
 30
0.0000000814935746
  9
$LIMMIN
 10
0.0
 20
0.0
  9
$LIMMAX
 10
12.0
 20
9.0
  9
$ORTHOMODE
 70
     1
  9
$REGENMODE
 70
     1
  9
$FILLMODE
 70
     1
  9
$QTEXTMODE
 70
     0
  9
$MIRRTEXT
 70
     0
  9
$LTSCALE
 40
1.0
  9
$ATTMODE
 70
     1
  9
$TEXTSIZE
 40
0.2
  9
$TRACEWID
 40
0.05
  9
$TEXTSTYLE
  7
Standard
  9
$CLAYER
  8
0
  9
$CELTYPE
  6
ByLayer
  9
$CECOLOR
 62
   256
  9
$CELTSCALE
 40
1.0
  9
$DISPSILH
 70
     0
  9
$DIMSCALE
 40
1.0
  9
$DIMASZ
 40
0.4
  9
$DIMEXO
 40
0.0625
  9
$DIMDLI
 40
0.38
  9
$DIMRND
 40
0.0
  9
$DIMDLE
 40
0.0
  9
$DIMEXE
 40
0.18
  9
$DIMTP
 40
0.0
  9
$DIMTM
 40
0.0
  9
$DIMTXT
 40
0.5
  9
$DIMCEN
 40
0.09
  9
$DIMTSZ
 40
0.0
  9
$DIMTOL
 70
     0
  9
$DIMLIM
 70
     0
  9
$DIMTIH
 70
     0
  9
$DIMTOH
 70
     1
  9
$DIMSE1
 70
     0
  9
$DIMSE2
 70
     0
  9
$DIMTAD
 70
     0
  9
$DIMZIN
 70
     0
  9
$DIMBLK
  1

  9
$DIMASO
 70
     1
  9
$DIMSHO
 70
     1
  9
$DIMPOST
  1

  9
$DIMAPOST
  1

  9
$DIMALT
 70
     0
  9
$DIMALTD
 70
     2
  9
$DIMALTF
 40
25.4
  9
$DIMLFAC
 40
1.0
  9
$DIMTOFL
 70
     0
  9
$DIMTVP
 40
0.0
  9
$DIMTIX
 70
     0
  9
$DIMSOXD
 70
     0
  9
$DIMSAH
 70
     0
  9
$DIMBLK1
  1

  9
$DIMBLK2
  1

  9
$DIMSTYLE
  2
Standard
  9
$DIMCLRD
 70
     0
  9
$DIMCLRE
 70
     0
  9
$DIMCLRT
 70
     0
  9
$DIMTFAC
 40
1.0
  9
$DIMGAP
 40
0.09
  9
$DIMJUST
 70
     0
  9
$DIMSD1
 70
     0
  9
$DIMSD2
 70
     0
  9
$DIMTOLJ
 70
     1
  9
$DIMTZIN
 70
     0
  9
$DIMALTZ
 70
     0
  9
$DIMALTTZ
 70
     0
  9
$DIMUPT
 70
     0
  9
$DIMDEC
 70
     4
  9
$DIMTDEC
 70
     4
  9
$DIMALTU
 70
     2
  9
$DIMALTTD
 70
     2
  9
$DIMTXSTY
  7
Standard
  9
$DIMAUNIT
 70
     0
  9
$DIMADEC
 70
     0
  9
$DIMALTRND
 40
0.0
  9
$DIMAZIN
 70
     0
  9
$DIMDSEP
 70
    46
  9
$DIMATFIT
 70
     3
  9
$DIMFRAC
 70
     0
  9
$DIMLDRBLK
  1

  9
$DIMLUNIT
 70
     2
  9
$DIMLWD
 70
    -2
  9
$DIMLWE
 70
    -2
  9
$DIMTMOVE
 70
     0
  9
$LUNITS
 70
     2
  9
$LUPREC
 70
     4
  9
$SKETCHINC
 40
0.1
  9
$FILLETRAD
 40
0.0
  9
$AUNITS
 70
     0
  9
$AUPREC
 70
     0
  9
$MENU
  1
.
  9
$ELEVATION
 40
0.0
  9
$PELEVATION
 40
0.0
  9
$THICKNESS
 40
0.0
  9
$LIMCHECK
 70
     0
  9
$CHAMFERA
 40
0.0
  9
$CHAMFERB
 40
0.0
  9
$CHAMFERC
 40
0.0
  9
$CHAMFERD
 40
0.0
  9
$SKPOLY
 70
     0
  9
$TDCREATE
 40
2454362.833726666
  9
$TDUCREATE
 40
2454363.042059999
  9
$TDUPDATE
 40
2454994.624789676
  9
$TDUUPDATE
 40
2454994.833123009
  9
$TDINDWG
 40
0.0123804630
  9
$TDUSRTIMER
 40
0.0123802778
  9
$USRTIMER
 70
     1
  9
$ANGBASE
 50
0.0
  9
$ANGDIR
 70
     0
  9
$PDMODE
 70
     0
  9
$PDSIZE
 40
0.0
  9
$PLINEWID
 40
0.0
  9
$SPLFRAME
 70
     0
  9
$SPLINETYPE
 70
     6
  9
$SPLINESEGS
 70
     8
  9
$HANDSEED
  5
5D6
  9
$SURFTAB1
 70
     6
  9
$SURFTAB2
 70
     6
  9
$SURFTYPE
 70
     6
  9
$SURFU
 70
     6
  9
$SURFV
 70
     6
  9
$UCSBASE
  2

  9
$UCSNAME
  2

  9
$UCSORG
 10
0.0
 20
0.0
 30
0.0
  9
$UCSXDIR
 10
1.0
 20
0.0
 30
0.0
  9
$UCSYDIR
 10
0.0
 20
1.0
 30
0.0
  9
$UCSORTHOREF
  2

  9
$UCSORTHOVIEW
 70
     0
  9
$UCSORGTOP
 10
0.0
 20
0.0
 30
0.0
  9
$UCSORGBOTTOM
 10
0.0
 20
0.0
 30
0.0
  9
$UCSORGLEFT
 10
0.0
 20
0.0
 30
0.0
  9
$UCSORGRIGHT
 10
0.0
 20
0.0
 30
0.0
  9
$UCSORGFRONT
 10
0.0
 20
0.0
 30
0.0
  9
$UCSORGBACK
 10
0.0
 20
0.0
 30
0.0
  9
$PUCSBASE
  2

  9
$PUCSNAME
  2

  9
$PUCSORG
 10
0.0
 20
0.0
 30
0.0
  9
$PUCSXDIR
 10
1.0
 20
0.0
 30
0.0
  9
$PUCSYDIR
 10
0.0
 20
1.0
 30
0.0
  9
$PUCSORTHOREF
  2

  9
$PUCSORTHOVIEW
 70
     0
  9
$PUCSORGTOP
 10
0.0
 20
0.0
 30
0.0
  9
$PUCSORGBOTTOM
 10
0.0
 20
0.0
 30
0.0
  9
$PUCSORGLEFT
 10
0.0
 20
0.0
 30
0.0
  9
$PUCSORGRIGHT
 10
0.0
 20
0.0
 30
0.0
  9
$PUCSORGFRONT
 10
0.0
 20
0.0
 30
0.0
  9
$PUCSORGBACK
 10
0.0
 20
0.0
 30
0.0
  9
$USERI1
 70
     0
  9
$USERI2
 70
     0
  9
$USERI3
 70
     0
  9
$USERI4
 70
     0
  9
$USERI5
 70
     0
  9
$USERR1
 40
0.0
  9
$USERR2
 40
0.0
  9
$USERR3
 40
0.0
  9
$USERR4
 40
0.0
  9
$USERR5
 40
0.0
  9
$WORLDVIEW
 70
     1
  9
$SHADEDGE
 70
     3
  9
$SHADEDIF
 70
    70
  9
$TILEMODE
 70
     1
  9
$MAXACTVP
 70
    64
  9
$PINSBASE
 10
0.0
 20
0.0
 30
0.0
  9
$PLIMCHECK
 70
     0
  9
$PEXTMIN
 10
1.000000000000000E+20
 20
1.000000000000000E+20
 30
1.000000000000000E+20
  9
$PEXTMAX
 10
-1.000000000000000E+20
 20
-1.000000000000000E+20
 30
-1.000000000000000E+20
  9
$PLIMMIN
 10
0.0
 20
0.0
  9
$PLIMMAX
 10
12.0
 20
9.0
  9
$UNITMODE
 70
     0
  9
$VISRETAIN
 70
     1
  9
$PLINEGEN
 70
     0
  9
$PSLTSCALE
 70
     1
  9
$TREEDEPTH
 70
  3020
  9
$CMLSTYLE
  2
Standard
  9
$CMLJUST
 70
     0
  9
$CMLSCALE
 40
1.0
  9
$PROXYGRAPHICS
 70
     1
  9
$MEASUREMENT
 70
     0
  9
$CELWEIGHT
370
    -1
  9
$ENDCAPS
280
     0
  9
$JOINSTYLE
280
     0
  9
$LWDISPLAY
290
     0
  9
$INSUNITS
 70
     1
  9
$HYPERLINKBASE
  1

  9
$STYLESHEET
  1

  9
$XEDIT
290
     1
  9
$CEPSNTYPE
380
     0
  9
$PSTYLEMODE
290
     1
  9
$FINGERPRINTGUID
  2
{0E531C3A-B7F7-4903-B082-D345C3A4B74B}
  9
$VERSIONGUID
  2
{0066F1D0-E292-492D-B7D3-6724505067C7}
  9
$EXTNAMES
290
     1
  9
$PSVPSCALE
 40
0.0
  9
$OLESTARTUP
290
     0
  0
ENDSEC
  0
SECTION
  2
CLASSES
  0
CLASS
  1
ACDBDICTIONARYWDFLT
  2
AcDbDictionaryWithDefault
  3
AutoCAD 2000
 90
        0
280
     0
281
     0
  0
CLASS
  1
DIMASSOC
  2
AcDbDimAssoc
  3
"AcDbDimAssoc|Product Desc:     AcDim ARX App For Dimension|Company:          Autodesk, Inc.|WEB Address:      www.autodesk.com"
 90
        0
280
     0
281
     0
  0
CLASS
  1
SORTENTSTABLE
  2
AcDbSortentsTable
  3
AutoCAD 2000
 90
    32768
280
     0
281
     0
  0
CLASS
  1
DICTIONARYVAR
  2
AcDbDictionaryVar
  3
AutoCAD 2000
 90
        0
280
     0
281
     0
  0
CLASS
  1
ACDBPLACEHOLDER
  2
AcDbPlaceHolder
  3
AutoCAD 2000
 90
        0
280
     0
281
     0
  0
CLASS
  1
LAYOUT
  2
AcDbLayout
  3
AutoCAD 2000
 90
        0
280
     0
281
     0
  0
ENDSEC
  0
SECTION
  2
TABLES
  0
TABLE
  2
VPORT
  5
8
330
0
100
AcDbSymbolTable
 70
     6
  0
VPORT
  5
5D5
330
8
100
AcDbSymbolTableRecord
100
AcDbViewportTableRecord
  2
*Active
 70
     0
 10
0.0
 20
0.0
 11
1.0
 21
1.0
 12
326.8711409582235
 22
339.6882173016714
 13
0.0
 23
0.0
 14
0.5
 24
0.5
 15
0.5
 25
0.5
 16
0.0
 26
0.0
 36
1.0
 17
0.0
 27
0.0
 37
0.0
 40
28.07780604020251
 41
2.045918367346938
 42
50.0
 43
0.0
 44
0.0
 50
0.0
 51
0.0
 71
     0
 72
  1000
 73
     1
 74
     3
 75
     0
 76
     0
 77
     0
 78
     0
281
     0
 65
     1
110
0.0
120
0.0
130
0.0
111
1.0
121
0.0
131
0.0
112
0.0
122
1.0
132
0.0
 79
     0
146
0.0
  0
ENDTAB
  0
TABLE
  2
LTYPE
  5
5
330
0
100
AcDbSymbolTable
 70
     3
  0
LTYPE
  5
14
330
5
100
AcDbSymbolTableRecord
100
AcDbLinetypeTableRecord
  2
ByBlock
 70
     0
  3

 72
    65
 73
     0
 40
0.0
  0
LTYPE
  5
15
330
5
100
AcDbSymbolTableRecord
100
AcDbLinetypeTableRecord
  2
ByLayer
 70
     0
  3

 72
    65
 73
     0
 40
0.0
  0
LTYPE
  5
16
330
5
100
AcDbSymbolTableRecord
100
AcDbLinetypeTableRecord
  2
Continuous
 70
     0
  3
Solid line
 72
    65
 73
     0
 40
0.0
  0
LTYPE
  5
9B
330
5
100
AcDbSymbolTableRecord
100
AcDbLinetypeTableRecord
  2
CENTERX2
 70
     0
  3
Center (2x) ________  __  ________  __  _____
 72
    65
 73
     4
 40
101.6
 49
63.5
 74
     0
 49
-12.7
 74
     0
 49
12.7
 74
     0
 49
-12.7
 74
     0
  0
LTYPE
  5
9C
330
5
100
AcDbSymbolTableRecord
100
AcDbLinetypeTableRecord
  2
HIDDENX2
 70
     0
  3
Hidden (2x) ____ ____ ____ ____ ____ ____ ____
 72
    65
 73
     2
 40
19.05
 49
12.7
 74
     0
 49
-6.349999999999997
 74
     0
  0
ENDTAB
  0
TABLE
  2
LAYER
  5
2
330
0
100
AcDbSymbolTable
 70
     5
  0
LAYER
  5
10
330
2
100
AcDbSymbolTableRecord
100
AcDbLayerTableRecord
  2
0
 70
     0
 62
     7
  6
Continuous
370
    -3
390
F
  0
LAYER
  5
9D
330
2
100
AcDbSymbolTableRecord
100
AcDbLayerTableRecord
  2
\M+5D6D0\M+5D0C4\M+5CFDF
 70
     0
 62
   230
  6
CENTERX2
370
    -3
390
F
1001
AcAecLayerStandard
1000

1000

  0
LAYER
  5
9E
330
2
100
AcDbSymbolTableRecord
100
AcDbLayerTableRecord
  2
\M+5B1EA\M+5D7A2
 70
     0
 62
    80
  6
Continuous
370
    -3
390
F
1001
AcAecLayerStandard
1000

1000

  0
LAYER
  5
9F
330
2
100
AcDbSymbolTableRecord
100
AcDbLayerTableRecord
  2
Defpoints
 70
     0
 62
     7
  6
Continuous
290
     0
370
    -3
390
F
  0
LAYER
  5
A0
330
2
100
AcDbSymbolTableRecord
100
AcDbLayerTableRecord
  2
\M+5D0E9\M+5CFDF
 70
     0
 62
   130
  6
HIDDENX2
370
    35
390
F
1001
AcAecLayerStandard
1000

1000

  0
ENDTAB
  0
TABLE
  2
STYLE
  5
3
330
0
100
AcDbSymbolTable
 70
     1
  0
STYLE
  5
11
330
3
100
AcDbSymbolTableRecord
100
AcDbTextStyleTableRecord
  2
Standard
 70
     0
 40
0.0
 41
1.0
 50
0.0
 71
     0
 42
0.2
  3
txt
  4

  0
ENDTAB
  0
TABLE
  2
VIEW
  5
6
330
0
100
AcDbSymbolTable
 70
     0
  0
ENDTAB
  0
TABLE
  2
UCS
  5
7
330
0
100
AcDbSymbolTable
 70
     0
  0
ENDTAB
  0
TABLE
  2
APPID
  5
9
330
0
100
AcDbSymbolTable
 70
     8
  0
APPID
  5
12
330
9
100
AcDbSymbolTableRecord
100
AcDbRegAppTableRecord
  2
ACAD
 70
     0
  0
APPID
  5
A3
330
9
100
AcDbSymbolTableRecord
100
AcDbRegAppTableRecord
  2
ACAD_PSEXT
 70
     0
  0
APPID
  5
A4
330
9
100
AcDbSymbolTableRecord
100
AcDbRegAppTableRecord
  2
AcAecLayerStandard
 70
     0
  0
APPID
  5
A5
330
9
100
AcDbSymbolTableRecord
100
AcDbRegAppTableRecord
  2
ACAD_DSTYLE_DIMEXT_LENGTH
 70
     0
  0
APPID
  5
A6
330
9
100
AcDbSymbolTableRecord
100
AcDbRegAppTableRecord
  2
ACAD_DSTYLE_DIMEXT_ENABLED
 70
     0
  0
APPID
  5
A7
330
9
100
AcDbSymbolTableRecord
100
AcDbRegAppTableRecord
  2
ACAD_DSTYLE_DIMJOGGED_JOGANGLE_SYMBOL
 70
     0
  0
APPID
  5
A8
330
9
100
AcDbSymbolTableRecord
100
AcDbRegAppTableRecord
  2
ACAD_DSTYLE_DIMARC_LENGTH_SYMBOL
 70
     0
  0
APPID
  5
2FD
330
9
100
AcDbSymbolTableRecord
100
AcDbRegAppTableRecord
  2
DCO15
 70
     0
  0
ENDTAB
  0
TABLE
  2
DIMSTYLE
  5
A
330
0
100
AcDbSymbolTable
 70
     3
100
AcDbDimStyleTable
 71
     3
340
29
340
A1
340
A2
  0
DIMSTYLE
105
29
102
{ACAD_REACTORS
330
4E3
330
511
330
54A
330
564
330
5A6
330
5B8
102
}
330
A
100
AcDbSymbolTableRecord
100
AcDbDimStyleTableRecord
  2
Standard
 70
     0
 41
0.4
 73
     0
140
0.5
340
11
  0
DIMSTYLE
105
A1
330
A
100
AcDbSymbolTableRecord
100
AcDbDimStyleTableRecord
  2
ISO-25
 70
     0
 41
10.0
 42
5.0
 43
3.75
 44
3.0
 73
     0
 74
     0
 77
     1
 78
     8
140
24.0
141
7.0
143
0.03937007874016
147
5.0
171
     3
172
     1
271
     2
272
     2
274
     3
278
    44
283
     0
284
     8
340
11
1001
ACAD_DSTYLE_DIMEXT_LENGTH
1070
   378
1040
1.25
1001
ACAD_DSTYLE_DIMEXT_ENABLED
1070
   383
1070
     0
1001
ACAD_DSTYLE_DIMARC_LENGTH_SYMBOL
1070
   379
1070
     0
1001
ACAD_DSTYLE_DIMJOGGED_JOGANGLE_SYMBOL
1070
   384
1040
1.570796326794896
  0
DIMSTYLE
105
A2
330
A
100
AcDbSymbolTableRecord
100
AcDbDimStyleTableRecord
  2
mav
 70
     0
 41
12.0
 42
7.0
 43
3.75
 44
1.25
 73
     0
 74
     0
 77
     1
 78
     8
140
15.0
141
2.5
143
0.03937007874016
147
5.0
171
     3
172
     1
271
     2
272
     2
274
     3
278
    44
283
     0
284
     8
340
11
1001
ACAD_DSTYLE_DIMEXT_LENGTH
1070
   378
1040
1.25
1001
ACAD_DSTYLE_DIMEXT_ENABLED
1070
   383
1070
     0
1001
ACAD_DSTYLE_DIMARC_LENGTH_SYMBOL
1070
   379
1070
     0
1001
ACAD_DSTYLE_DIMJOGGED_JOGANGLE_SYMBOL
1070
   384
1040
1.570796326794896
  0
ENDTAB
  0
TABLE
  2
BLOCK_RECORD
  5
1
330
0
100
AcDbSymbolTable
 70
    20
  0
BLOCK_RECORD
  5
21
330
1
100
AcDbSymbolTableRecord
100
AcDbBlockTableRecord
  2
*Model_Space
340
24
  0
BLOCK_RECORD
  5
1D
330
1
100
AcDbSymbolTableRecord
100
AcDbBlockTableRecord
  2
*Paper_Space
340
20
  0
BLOCK_RECORD
  5
25
330
1
100
AcDbSymbolTableRecord
100
AcDbBlockTableRecord
  2
*Paper_Space0
340
28
  0
BLOCK_RECORD
  5
1B1
330
1
100
AcDbSymbolTableRecord
100
AcDbBlockTableRecord
  2
*D1
340
0
  0
BLOCK_RECORD
  5
1CC
330
1
100
AcDbSymbolTableRecord
100
AcDbBlockTableRecord
  2
*D2
340
0
  0
BLOCK_RECORD
  5
1F0
330
1
100
AcDbSymbolTableRecord
100
AcDbBlockTableRecord
  2
*D3
340
0
  0
BLOCK_RECORD
  5
20A
330
1
100
AcDbSymbolTableRecord
100
AcDbBlockTableRecord
  2
*D4
340
0
  0
BLOCK_RECORD
  5
224
330
1
100
AcDbSymbolTableRecord
100
AcDbBlockTableRecord
  2
*D5
340
0
  0
BLOCK_RECORD
  5
236
330
1
100
AcDbSymbolTableRecord
100
AcDbBlockTableRecord
  2
*D6
340
0
  0
BLOCK_RECORD
  5
248
330
1
100
AcDbSymbolTableRecord
100
AcDbBlockTableRecord
  2
*D7
340
0
  0
BLOCK_RECORD
  5
25A
330
1
100
AcDbSymbolTableRecord
100
AcDbBlockTableRecord
  2
*D8
340
0
  0
BLOCK_RECORD
  5
26C
330
1
100
AcDbSymbolTableRecord
100
AcDbBlockTableRecord
  2
*D9
340
0
  0
BLOCK_RECORD
  5
35F
330
1
100
AcDbSymbolTableRecord
100
AcDbBlockTableRecord
  2
*U10
340
0
102
{BLKREFS
331
36C
102
}
  0
BLOCK_RECORD
  5
398
330
1
100
AcDbSymbolTableRecord
100
AcDbBlockTableRecord
  2
*D12
340
0
  0
BLOCK_RECORD
  5
416
330
1
100
AcDbSymbolTableRecord
100
AcDbBlockTableRecord
  2
*D13
340
0
  0
BLOCK_RECORD
  5
4E4
330
1
100
AcDbSymbolTableRecord
100
AcDbBlockTableRecord
  2
*D14
340
0
  0
BLOCK_RECORD
  5
512
330
1
100
AcDbSymbolTableRecord
100
AcDbBlockTableRecord
  2
*D15
340
0
  0
BLOCK_RECORD
  5
54B
330
1
100
AcDbSymbolTableRecord
100
AcDbBlockTableRecord
  2
*D16
340
0
  0
BLOCK_RECORD
  5
565
330
1
100
AcDbSymbolTableRecord
100
AcDbBlockTableRecord
  2
*D17
340
0
  0
BLOCK_RECORD
  5
5A7
330
1
100
AcDbSymbolTableRecord
100
AcDbBlockTableRecord
  2
*D18
340
0
  0
BLOCK_RECORD
  5
5B9
330
1
100
AcDbSymbolTableRecord
100
AcDbBlockTableRecord
  2
*D19
340
0
  0
ENDTAB
  0
ENDSEC
  0
SECTION
  2
BLOCKS
  0
BLOCK
  5
22
330
21
100
AcDbEntity
  8
0
100
AcDbBlockBegin
  2
*Model_Space
 70
     0
 10
0.0
 20
0.0
 30
0.0
  3
*Model_Space
  1

  0
ENDBLK
  5
23
330
21
100
AcDbEntity
  8
0
100
AcDbBlockEnd
  0
BLOCK
  5
1E
330
1D
100
AcDbEntity
 67
     1
  8
0
100
AcDbBlockBegin
  2
*Paper_Space
 70
     0
 10
0.0
 20
0.0
 30
0.0
  3
*Paper_Space
  1

  0
ENDBLK
  5
1F
330
1D
100
AcDbEntity
 67
     1
  8
0
100
AcDbBlockEnd
  0
BLOCK
  5
26
330
25
100
AcDbEntity
  8
0
100
AcDbBlockBegin
  2
*Paper_Space0
 70
     0
 10
0.0
 20
0.0
 30
0.0
  3
*Paper_Space0
  1

  0
ENDBLK
  5
27
330
25
100
AcDbEntity
  8
0
100
AcDbBlockEnd
  0
BLOCK
  5
1BC
330
1B1
100
AcDbEntity
  8
0
100
AcDbBlockBegin
  2
*D1
 70
     1
 10
0.0
 20
0.0
 30
0.0
  3
*D1
  1

  0
LINE
  5
493
330
1B1
100
AcDbEntity
  8
0
 62
     0
370
    -2
100
AcDbLine
 10
279.6516155770135
 20
339.4486692234092
 30
0.0
 11
279.6516155770135
 21
332.7532508633016
 31
0.0
  0
LINE
  5
494
330
1B1
100
AcDbEntity
  8
0
 62
     0
370
    -2
100
AcDbLine
 10
301.2952368567019
 20
339.4486692234092
 30
0.0
 11
301.2952368567019
 21
332.7532508633016
 31
0.0
  0
LINE
  5
495
330
1B1
100
AcDbEntity
  8
0
 62
     0
370
    -2
100
AcDbLine
 10
280.1516155770134
 20
332.9332508633016
 30
0.0
 11
288.9667595501911
 21
332.9332508633016
 31
0.0
  0
LINE
  5
496
330
1B1
100
AcDbEntity
  8
0
 62
     0
370
    -2
100
AcDbLine
 10
300.7952368567019
 20
332.9332508633016
 30
0.0
 11
291.9800928835244
 21
332.9332508633016
 31
0.0
  0
SOLID
  5
497
330
1B1
100
AcDbEntity
  8
0
 62
     0
100
AcDbTrace
 10
280.1516155770134
 20
333.016584196635
 30
0.0
 11
280.1516155770134
 21
332.8499175299683
 31
0.0
 12
279.6516155770135
 22
332.9332508633016
 32
0.0
 13
279.6516155770135
 23
332.9332508633016
 33
0.0
  0
SOLID
  5
498
330
1B1
100
AcDbEntity
  8
0
 62
     0
100
AcDbTrace
 10
300.7952368567019
 20
333.016584196635
 30
0.0
 11
300.7952368567019
 21
332.8499175299683
 31
0.0
 12
301.2952368567019
 22
332.9332508633016
 32
0.0
 13
301.2952368567019
 23
332.9332508633016
 33
0.0
  0
MTEXT
  5
499
330
1B1
100
AcDbEntity
  8
0
 62
     0
100
AcDbMText
 10
290.4734262168577
 20
332.9332508633016
 30
0.0
 40
0.5
 41
0.0
 71
     5
 72
     1
  1
\A1;21.6436
 73
     1
 44
1.0
  0
POINT
  5
49A
330
1B1
100
AcDbEntity
  8
Defpoints
 62
     0
100
AcDbPoint
 10
279.6516155770135
 20
339.5111692234093
 30
0.0
  0
POINT
  5
49B
330
1B1
100
AcDbEntity
  8
Defpoints
 62
     0
100
AcDbPoint
 10
301.2952368567019
 20
339.5111692234093
 30
0.0
  0
POINT
  5
49C
330
1B1
100
AcDbEntity
  8
Defpoints
 62
     0
100
AcDbPoint
 10
301.2952368567019
 20
332.9332508633016
 30
0.0
  0
ENDBLK
  5
1BD
330
1B1
100
AcDbEntity
  8
0
100
AcDbBlockEnd
  0
BLOCK
  5
1D7
330
1CC
100
AcDbEntity
  8
0
100
AcDbBlockBegin
  2
*D2
 70
     1
 10
0.0
 20
0.0
 30
0.0
  3
*D2
  1

  0
LINE
  5
489
330
1CC
100
AcDbEntity
  8
0
 62
     0
370
    -2
100
AcDbLine
 10
279.3761941877396
 20
339.4583080215973
 30
0.0
 11
279.3761941877396
 21
330.8553664077708
 31
0.0
  0
LINE
  5
48A
330
1CC
100
AcDbEntity
  8
0
 62
     0
370
    -2
100
AcDbLine
 10
301.5706582459757
 20
339.4583080215981
 30
0.0
 11
301.5706582459757
 21
330.8553664077708
 31
0.0
  0
LINE
  5
48B
330
1CC
100
AcDbEntity
  8
0
 62
     0
370
    -2
100
AcDbLine
 10
279.8761941877395
 20
331.0353664077708
 30
0.0
 11
289.0497016965089
 21
331.0353664077708
 31
0.0
  0
LINE
  5
48C
330
1CC
100
AcDbEntity
  8
0
 62
     0
370
    -2
100
AcDbLine
 10
301.0706582459757
 20
331.0353664077708
 30
0.0
 11
292.0630350298423
 21
331.0353664077708
 31
0.0
  0
SOLID
  5
48D
330
1CC
100
AcDbEntity
  8
0
 62
     0
100
AcDbTrace
 10
279.8761941877395
 20
331.1186997411041
 30
0.0
 11
279.8761941877395
 21
330.9520330744375
 31
0.0
 12
279.3761941877396
 22
331.0353664077708
 32
0.0
 13
279.3761941877396
 23
331.0353664077708
 33
0.0
  0
SOLID
  5
48E
330
1CC
100
AcDbEntity
  8
0
 62
     0
100
AcDbTrace
 10
301.0706582459757
 20
331.1186997411041
 30
0.0
 11
301.0706582459757
 21
330.9520330744375
 31
0.0
 12
301.5706582459757
 22
331.0353664077708
 32
0.0
 13
301.5706582459757
 23
331.0353664077708
 33
0.0
  0
MTEXT
  5
48F
330
1CC
100
AcDbEntity
  8
0
 62
     0
100
AcDbMText
 10
290.5563683631756
 20
331.0353664077708
 30
0.0
 40
0.5
 41
0.0
 71
     5
 72
     1
  1
\A1;22.1945
 73
     1
 44
1.0
  0
POINT
  5
490
330
1CC
100
AcDbEntity
  8
Defpoints
 62
     0
100
AcDbPoint
 10
279.3761941877396
 20
339.5208080215973
 30
0.0
  0
POINT
  5
491
330
1CC
100
AcDbEntity
  8
Defpoints
 62
     0
100
AcDbPoint
 10
301.5706582459757
 20
339.5208080215981
 30
0.0
  0
POINT
  5
492
330
1CC
100
AcDbEntity
  8
Defpoints
 62
     0
100
AcDbPoint
 10
301.5706582459757
 20
331.0353664077708
 30
0.0
  0
ENDBLK
  5
1D8
330
1CC
100
AcDbEntity
  8
0
100
AcDbBlockEnd
  0
BLOCK
  5
1FB
330
1F0
100
AcDbEntity
  8
0
100
AcDbBlockBegin
  2
*D3
 70
     1
 10
0.0
 20
0.0
 30
0.0
  3
*D3
  1

  0
LINE
  5
4C5
330
1F0
100
AcDbEntity
  8
0
 62
     0
370
    -2
100
AcDbLine
 10
290.5359262168579
 20
354.5269127768077
 30
0.0
 11
304.5515625786102
 21
354.5269127768077
 31
0.0
  0
LINE
  5
4C6
330
1F0
100
AcDbEntity
  8
0
 62
     0
370
    -2
100
AcDbLine
 10
297.2264160175956
 20
335.2327372505874
 30
0.0
 11
304.5515625786102
 21
335.2327372505874
 31
0.0
  0
LINE
  5
4C7
330
1F0
100
AcDbEntity
  8
0
 62
     0
370
    -2
100
AcDbLine
 10
304.3715625786102
 20
354.0269127768077
 30
0.0
 11
304.3715625786102
 21
346.3864916803642
 31
0.0
  0
LINE
  5
4C8
330
1F0
100
AcDbEntity
  8
0
 62
     0
370
    -2
100
AcDbLine
 10
304.3715625786102
 20
335.7327372505874
 30
0.0
 11
304.3715625786102
 21
343.3731583470309
 31
0.0
  0
SOLID
  5
4C9
330
1F0
100
AcDbEntity
  8
0
 62
     0
100
AcDbTrace
 10
304.2882292452769
 20
354.0269127768077
 30
0.0
 11
304.4548959119436
 21
354.0269127768077
 31
0.0
 12
304.3715625786102
 22
354.5269127768077
 32
0.0
 13
304.3715625786102
 23
354.5269127768077
 33
0.0
  0
SOLID
  5
4CA
330
1F0
100
AcDbEntity
  8
0
 62
     0
100
AcDbTrace
 10
304.2882292452769
 20
335.7327372505874
 30
0.0
 11
304.4548959119436
 21
335.7327372505874
 31
0.0
 12
304.3715625786102
 22
335.2327372505874
 32
0.0
 13
304.3715625786102
 23
335.2327372505874
 33
0.0
  0
MTEXT
  5
4CB
330
1F0
100
AcDbEntity
  8
0
 62
     0
100
AcDbMText
 10
304.3715625786102
 20
344.8798250136976
 30
0.0
 40
0.5
 41
0.0
 71
     5
 72
     1
  1
\A1;19.2942
 11
0.0000000000000001
 21
1.0
 31
0.0
 73
     1
 44
1.0
  0
POINT
  5
4CC
330
1F0
100
AcDbEntity
  8
Defpoints
 62
     0
100
AcDbPoint
 10
290.4734262168578
 20
354.5269127768077
 30
0.0
  0
POINT
  5
4CD
330
1F0
100
AcDbEntity
  8
Defpoints
 62
     0
100
AcDbPoint
 10
297.1639160175957
 20
335.2327372505874
 30
0.0
  0
POINT
  5
4CE
330
1F0
100
AcDbEntity
  8
Defpoints
 62
     0
100
AcDbPoint
 10
304.3715625786102
 20
335.2327372505874
 30
0.0
  0
ENDBLK
  5
1FC
330
1F0
100
AcDbEntity
  8
0
100
AcDbBlockEnd
  0
BLOCK
  5
215
330
20A
100
AcDbEntity
  8
0
100
AcDbBlockBegin
  2
*D4
 70
     1
 10
0.0
 20
0.0
 30
0.0
  3
*D4
  1

  0
LINE
  5
4BB
330
20A
100
AcDbEntity
  8
0
 62
     0
370
    -2
100
AcDbLine
 10
290.5359262168579
 20
354.8025027768078
 30
0.0
 11
307.2727252076365
 21
354.8025027768078
 31
0.0
  0
LINE
  5
4BC
330
20A
100
AcDbEntity
  8
0
 62
     0
370
    -2
100
AcDbLine
 10
297.2264160175956
 20
334.9571472505875
 30
0.0
 11
307.2727252076365
 21
334.9571472505875
 31
0.0
  0
LINE
  5
4BD
330
20A
100
AcDbEntity
  8
0
 62
     0
370
    -2
100
AcDbLine
 10
307.0927252076364
 20
354.3025027768077
 30
0.0
 11
307.0927252076364
 21
346.3864916803643
 31
0.0
  0
LINE
  5
4BE
330
20A
100
AcDbEntity
  8
0
 62
     0
370
    -2
100
AcDbLine
 10
307.0927252076364
 20
335.4571472505875
 30
0.0
 11
307.0927252076364
 21
343.373158347031
 31
0.0
  0
SOLID
  5
4BF
330
20A
100
AcDbEntity
  8
0
 62
     0
100
AcDbTrace
 10
307.0093918743031
 20
354.3025027768077
 30
0.0
 11
307.1760585409697
 21
354.3025027768077
 31
0.0
 12
307.0927252076364
 22
354.8025027768078
 32
0.0
 13
307.0927252076364
 23
354.8025027768078
 33
0.0
  0
SOLID
  5
4C0
330
20A
100
AcDbEntity
  8
0
 62
     0
100
AcDbTrace
 10
307.0093918743031
 20
335.4571472505875
 30
0.0
 11
307.1760585409697
 21
335.4571472505875
 31
0.0
 12
307.0927252076364
 22
334.9571472505875
 32
0.0
 13
307.0927252076364
 23
334.9571472505875
 33
0.0
  0
MTEXT
  5
4C1
330
20A
100
AcDbEntity
  8
0
 62
     0
100
AcDbMText
 10
307.0927252076364
 20
344.8798250136977
 30
0.0
 40
0.5
 41
0.0
 71
     5
 72
     1
  1
\A1;19.8454
 11
0.0000000000000001
 21
1.0
 31
0.0
 73
     1
 44
1.0
  0
POINT
  5
4C2
330
20A
100
AcDbEntity
  8
Defpoints
 62
     0
100
AcDbPoint
 10
290.4734262168578
 20
354.8025027768078
 30
0.0
  0
POINT
  5
4C3
330
20A
100
AcDbEntity
  8
Defpoints
 62
     0
100
AcDbPoint
 10
297.1639160175957
 20
334.9571472505875
 30
0.0
  0
POINT
  5
4C4
330
20A
100
AcDbEntity
  8
Defpoints
 62
     0
100
AcDbPoint
 10
307.0927252076364
 20
334.9571472505875
 30
0.0
  0
ENDBLK
  5
216
330
20A
100
AcDbEntity
  8
0
100
AcDbBlockEnd
  0
BLOCK
  5
22B
330
224
100
AcDbEntity
  8
0
100
AcDbBlockBegin
  2
*D5
 70
     1
 10
0.0
 20
0.0
 30
0.0
  3
*D5
  1

  0
LINE
  5
4DE
330
224
100
AcDbEntity
  8
0
 62
     0
370
    -2
100
AcDbLine
 10
299.4185024756347
 20
337.1899256494821
 30
0.0
 11
299.7782175957008
 21
336.8426432969275
 31
0.0
  0
MTEXT
  5
4DF
330
224
100
AcDbEntity
  8
0
 62
     0
100
AcDbMText
 10
298.3345609138354
 20
338.236403138513
 30
0.0
 40
0.5
 41
0.0
 71
     5
 72
     1
  1
\A1;R4.1339
 11
0.7194302401322588
 21
-0.6945647051090637
 31
0.0
 73
     1
 44
1.0
  0
SOLID
  5
4E0
330
224
100
AcDbEntity
  8
0
 62
     0
100
AcDbTrace
 10
299.8360979877933
 20
336.9025958169385
 30
0.0
 11
299.7203372036084
 21
336.7826907769166
 31
0.0
 12
300.1379327157669
 22
336.495360944373
 32
0.0
 13
300.1379327157669
 23
336.495360944373
 33
0.0
  0
POINT
  5
4E1
330
224
100
AcDbEntity
  8
Defpoints
 62
     0
100
AcDbPoint
 10
300.1379327157669
 20
336.495360944373
 30
0.0
  0
POINT
  5
4E2
330
224
100
AcDbEntity
  8
Defpoints
 62
     0
100
AcDbPoint
 10
297.1639160175961
 20
339.3665872505881
 30
0.0
  0
ENDBLK
  5
22C
330
224
100
AcDbEntity
  8
0
100
AcDbBlockEnd
  0
BLOCK
  5
23D
330
236
100
AcDbEntity
  8
0
100
AcDbBlockBegin
  2
*D6
 70
     1
 10
0.0
 20
0.0
 30
0.0
  3
*D6
  1

  0
LINE
  5
4CF
330
236
100
AcDbEntity
  8
0
 62
     0
370
    -2
100
AcDbLine
 10
283.7025933296417
 20
350.7808307067075
 30
0.0
 11
282.734328532221
 21
351.8906518517664
 31
0.0
  0
MTEXT
  5
4D0
330
236
100
AcDbEntity
  8
0
 62
     0
100
AcDbMText
 10
284.7478850150715
 20
349.5827216580932
 30
0.0
 40
0.5
 41
0.0
 71
     5
 72
     1
  1
\A1;R7.2835
 11
0.6574161543583892
 21
-0.7535277035309496
 31
0.0
 73
     1
 44
1.0
  0
SOLID
  5
4D1
330
236
100
AcDbEntity
  8
0
 62
     0
100
AcDbTrace
 10
282.7971225075152
 20
351.9454365312963
 30
0.0
 11
282.6715345569267
 21
351.8358671722365
 31
0.0
 12
282.4056204550418
 22
352.2674157035319
 32
0.0
 13
282.4056204550418
 23
352.2674157035319
 33
0.0
  0
POINT
  5
4D2
330
236
100
AcDbEntity
  8
Defpoints
 62
     0
100
AcDbPoint
 10
282.4056204550418
 20
352.2674157035319
 30
0.0
  0
POINT
  5
4D3
330
236
100
AcDbEntity
  8
Defpoints
 62
     0
100
AcDbPoint
 10
287.1938781445036
 20
346.7791343512492
 30
0.0
  0
ENDBLK
  5
23E
330
236
100
AcDbEntity
  8
0
100
AcDbBlockEnd
  0
BLOCK
  5
24F
330
248
100
AcDbEntity
  8
0
100
AcDbBlockBegin
  2
*D7
 70
     1
 10
0.0
 20
0.0
 30
0.0
  3
*D7
  1

  0
LINE
  5
4D9
330
248
100
AcDbEntity
  8
0
 62
     0
370
    -2
100
AcDbLine
 10
289.9742752067373
 20
353.5200278055071
 30
0.0
 11
289.960484467067
 21
354.0198375848226
 31
0.0
  0
MTEXT
  5
4DA
330
248
100
AcDbEntity
  8
0
 62
     0
100
AcDbMText
 10
290.0215774438063
 20
351.8056802624552
 30
0.0
 40
0.5
 41
0.0
 71
     5
 72
     1
  1
\A1;R19.0973
 11
0.0275814793405384
 21
-0.9996195586308759
 31
0.0
 73
     1
 44
1.0
  0
SOLID
  5
4DB
330
248
100
AcDbEntity
  8
0
 62
     0
100
AcDbTrace
 10
290.0437860969529
 20
354.0221360414343
 30
0.0
 11
289.8771828371812
 21
354.0175391282108
 31
0.0
 12
289.9466937273968
 22
354.519647364138
 32
0.0
 13
289.9466937273968
 23
354.519647364138
 33
0.0
  0
POINT
  5
4DC
330
248
100
AcDbEntity
  8
Defpoints
 62
     0
100
AcDbPoint
 10
289.9466937273968
 20
354.519647364138
 30
0.0
  0
POINT
  5
4DD
330
248
100
AcDbEntity
  8
Defpoints
 62
     0
100
AcDbPoint
 10
290.4734262168577
 20
335.4295872505876
 30
0.0
  0
ENDBLK
  5
250
330
248
100
AcDbEntity
  8
0
100
AcDbBlockEnd
  0
BLOCK
  5
261
330
25A
100
AcDbEntity
  8
0
100
AcDbBlockBegin
  2
*D8
 70
     1
 10
0.0
 20
0.0
 30
0.0
  3
*D8
  1

  0
LINE
  5
4D4
330
25A
100
AcDbEntity
  8
0
 62
     0
370
    -2
100
AcDbLine
 10
297.3927543908804
 20
350.9160295609053
 30
0.0
 11
298.2338334484474
 21
351.8719817962055
 31
0.0
  0
MTEXT
  5
4D5
330
25A
100
AcDbEntity
  8
0
 62
     0
100
AcDbMText
 10
296.342467875437
 20
349.7222966613512
 30
0.0
 40
0.5
 41
0.0
 71
     5
 72
     1
  1
\A1;R7.2835
 11
0.6605575568826111
 21
0.7507754085245974
 31
0.0
 73
     1
 44
1.0
  0
SOLID
  5
4D6
330
25A
100
AcDbEntity
  8
0
 62
     0
100
AcDbTrace
 10
298.1712688310703
 20
351.9270282592791
 30
0.0
 11
298.2963980658245
 21
351.816935333132
 31
0.0
 12
298.5641122268887
 22
352.2473695004678
 32
0.0
 13
298.5641122268887
 23
352.2473695004678
 33
0.0
  0
POINT
  5
4D7
330
25A
100
AcDbEntity
  8
Defpoints
 62
     0
100
AcDbPoint
 10
298.5641122268887
 20
352.2473695004678
 30
0.0
  0
POINT
  5
4D8
330
25A
100
AcDbEntity
  8
Defpoints
 62
     0
100
AcDbPoint
 10
293.752974289212
 20
346.7791343512493
 30
0.0
  0
ENDBLK
  5
262
330
25A
100
AcDbEntity
  8
0
100
AcDbBlockEnd
  0
BLOCK
  5
277
330
26C
100
AcDbEntity
  8
0
100
AcDbBlockBegin
  2
*D9
 70
     1
 10
0.0
 20
0.0
 30
0.0
  3
*D9
  1

  0
ARC
  5
49D
330
26C
100
AcDbEntity
  8
0
 62
     0
370
    -2
100
AcDbCircle
 10
279.5018852221692
 20
335.2327372505875
 30
0.0
 40
6.077831803366638
100
AcDbArc
 50
4.714835029365586
 51
37.63725538631833
  0
ARC
  5
49E
330
26C
100
AcDbEntity
  8
0
 62
     0
370
    -2
100
AcDbCircle
 10
279.5018852221692
 20
335.2327372505875
 30
0.0
 40
6.077831803366638
100
AcDbArc
 50
50.35840805853116
 51
83.28082841548395
  0
SOLID
  5
49F
330
26C
100
AcDbEntity
  8
0
 62
     0
100
AcDbTrace
 10
285.6424132871091
 20
335.7357418462218
 30
0.0
 11
285.4758876743858
 21
335.7288863312922
 31
0.0
 12
285.5797170255358
 22
335.2327372505875
 32
0.0
 13
285.5797170255358
 23
335.2327372505875
 33
0.0
  0
SOLID
  5
4A0
330
26C
100
AcDbEntity
  8
0
 62
     0
100
AcDbTrace
 10
280.2066723084454
 20
341.1857318224306
 30
0.0
 11
280.2193478852815
 21
341.3519157793268
 31
0.0
 12
279.7144582261752
 22
341.3068505313868
 32
0.0
 13
279.7144582261752
 23
341.3068505313868
 33
0.0
  0
MTEXT
  5
4A1
330
26C
100
AcDbEntity
  8
0
 62
     0
100
AcDbMText
 10
283.874071311204
 20
339.454588530875
 30
0.0
 40
0.5
 41
0.0
 71
     5
 72
     1
  1
\A1;88°
 11
0.6946311475662979
 21
-0.7193660881850966
 31
0.0
 73
     1
 44
1.0
  0
POINT
  5
4A2
330
26C
100
AcDbEntity
  8
Defpoints
 62
     0
100
AcDbPoint
 10
284.8005193744155
 20
338.2100708816513
 30
0.0
  0
POINT
  5
4A3
330
26C
100
AcDbEntity
  8
Defpoints
 62
     0
100
AcDbPoint
 10
279.6516155770134
 20
339.5111692234093
 30
0.0
  0
POINT
  5
4A4
330
26C
100
AcDbEntity
  8
Defpoints
 62
     0
100
AcDbPoint
 10
283.7829364161198
 20
335.2327372505874
 30
0.0
  0
POINT
  5
4A5
330
26C
100
AcDbEntity
  8
Defpoints
 62
     0
100
AcDbPoint
 10
297.1639160175957
 20
335.2327372505875
 30
0.0
  0
POINT
  5
4A6
330
26C
100
AcDbEntity
  8
Defpoints
 62
     0
100
AcDbPoint
 10
279.9148842851253
 20
347.0338740176496
 30
0.0
  0
ENDBLK
  5
278
330
26C
100
AcDbEntity
  8
0
100
AcDbBlockEnd
  0
BLOCK
  5
363
330
35F
100
AcDbEntity
  8
0
100
AcDbBlockBegin
  2
*U10
 70
     1
 10
0.0
 20
0.0
 30
0.0
  3
*U10
  1

  0
TEXT
  5
360
330
35F
100
AcDbEntity
  8
0
100
AcDbText
 10
1.9327459004445
 20
-2.486795878345354
 30
0.0
 40
0.5
  1
NOTE: CHECK ALL DXF FILES BEFORE USING.
100
AcDbText
  0
TEXT
  5
361
330
35F
100
AcDbEntity
  8
0
100
AcDbText
 10
1.9327459004445
 20
-3.320129211678687
 30
0.0
 40
0.5
  1
DOMAIN INDUSTRIES DOES NOT WARRANT AND
100
AcDbText
  0
TEXT
  5
362
330
35F
100
AcDbEntity
  8
0
100
AcDbText
 10
1.9327459004445
 20
-4.153462545012019
 30
0.0
 40
0.5
  1
IS NOT LIABLE FOR ACCURACY OF DRAWING.
100
AcDbText
  0
ENDBLK
  5
364
330
35F
100
AcDbEntity
  8
0
100
AcDbBlockEnd
  0
BLOCK
  5
3A3
330
398
100
AcDbEntity
  8
0
100
AcDbBlockBegin
  2
*D12
 70
     1
 10
0.0
 20
0.0
 30
0.0
  3
*D12
  1

  0
LINE
  5
3B1
330
398
100
AcDbEntity
  8
0
 62
     0
370
    -2
100
AcDbLine
 10
332.081404977956
 20
352.9276204460209
 30
0.0
 11
340.3071630854259
 21
352.9276204460209
 31
0.0
  0
LINE
  5
3B2
330
398
100
AcDbEntity
  8
0
 62
     0
370
    -2
100
AcDbLine
 10
332.081404977956
 20
335.9985204460209
 30
0.0
 11
340.3071630854259
 21
335.9985204460209
 31
0.0
  0
LINE
  5
3B3
330
398
100
AcDbEntity
  8
0
 62
     0
370
    -2
100
AcDbLine
 10
340.1271630854259
 20
352.7476204460209
 30
0.0
 11
340.1271630854259
 21
344.8230704460208
 31
0.0
  0
LINE
  5
3B4
330
398
100
AcDbEntity
  8
0
 62
     0
370
    -2
100
AcDbLine
 10
340.1271630854259
 20
336.1785204460209
 30
0.0
 11
340.1271630854259
 21
344.4630704460208
 31
0.0
  0
SOLID
  5
3B5
330
398
100
AcDbEntity
  8
0
 62
     0
100
AcDbTrace
 10
340.0971630854259
 20
352.7476204460209
 30
0.0
 11
340.1571630854259
 21
352.7476204460209
 31
0.0
 12
340.1271630854259
 22
352.9276204460209
 32
0.0
 13
340.1271630854259
 23
352.9276204460209
 33
0.0
  0
SOLID
  5
3B6
330
398
100
AcDbEntity
  8
0
 62
     0
100
AcDbTrace
 10
340.0971630854259
 20
336.1785204460209
 30
0.0
 11
340.1571630854259
 21
336.1785204460209
 31
0.0
 12
340.1271630854259
 22
335.9985204460209
 32
0.0
 13
340.1271630854259
 23
335.9985204460209
 33
0.0
  0
MTEXT
  5
3B7
330
398
100
AcDbEntity
  8
0
 62
     0
100
AcDbMText
 10
340.1271630854258
 20
344.6430704460209
 30
0.0
 40
0.18
 41
0.0
 71
     5
 72
     1
  1
\A1;16.9291
 73
     1
 44
1.0
  0
POINT
  5
3B8
330
398
100
AcDbEntity
  8
Defpoints
 62
     0
100
AcDbPoint
 10
332.018904977956
 20
352.9276204460209
 30
0.0
  0
POINT
  5
3B9
330
398
100
AcDbEntity
  8
Defpoints
 62
     0
100
AcDbPoint
 10
332.018904977956
 20
335.9985204460209
 30
0.0
  0
POINT
  5
3BA
330
398
100
AcDbEntity
  8
Defpoints
 62
     0
100
AcDbPoint
 10
340.1271630854259
 20
335.9985204460209
 30
0.0
  0
ENDBLK
  5
3A4
330
398
100
AcDbEntity
  8
0
100
AcDbBlockEnd
  0
BLOCK
  5
421
330
416
100
AcDbEntity
  8
0
100
AcDbBlockBegin
  2
*D13
 70
     1
 10
0.0
 20
0.0
 30
0.0
  3
*D13
  1

  0
LINE
  5
424
330
416
100
AcDbEntity
  8
0
 62
     0
370
    -2
100
AcDbLine
 10
332.081404977956
 20
352.9276204460209
 30
0.0
 11
338.3808493499252
 21
352.9276204460209
 31
0.0
  0
LINE
  5
425
330
416
100
AcDbEntity
  8
0
 62
     0
370
    -2
100
AcDbLine
 10
332.081404977956
 20
335.9985204460209
 30
0.0
 11
338.3808493499252
 21
335.9985204460209
 31
0.0
  0
LINE
  5
426
330
416
100
AcDbEntity
  8
0
 62
     0
370
    -2
100
AcDbLine
 10
338.2008493499252
 20
352.6776204460209
 30
0.0
 11
338.2008493499252
 21
345.2197371126875
 31
0.0
  0
LINE
  5
427
330
416
100
AcDbEntity
  8
0
 62
     0
370
    -2
100
AcDbLine
 10
338.2008493499252
 20
336.2485204460209
 30
0.0
 11
338.2008493499252
 21
343.7064037793542
 31
0.0
  0
SOLID
  5
428
330
416
100
AcDbEntity
  8
0
 62
     0
100
AcDbTrace
 10
338.1591826832585
 20
352.6776204460209
 30
0.0
 11
338.2425160165919
 21
352.6776204460209
 31
0.0
 12
338.2008493499252
 22
352.9276204460209
 32
0.0
 13
338.2008493499252
 23
352.9276204460209
 33
0.0
  0
SOLID
  5
429
330
416
100
AcDbEntity
  8
0
 62
     0
100
AcDbTrace
 10
338.1591826832585
 20
336.2485204460209
 30
0.0
 11
338.2425160165919
 21
336.2485204460209
 31
0.0
 12
338.2008493499252
 22
335.9985204460209
 32
0.0
 13
338.2008493499252
 23
335.9985204460209
 33
0.0
  0
MTEXT
  5
42A
330
416
100
AcDbEntity
  8
0
 62
     0
100
AcDbMText
 10
338.2008493499252
 20
344.4630704460209
 30
0.0
 40
0.25
 41
0.0
 71
     5
 72
     1
  1
\A1;16.9291
 11
0.0000000000000001
 21
1.0
 31
0.0
 73
     1
 44
1.0
  0
POINT
  5
42B
330
416
100
AcDbEntity
  8
Defpoints
 62
     0
100
AcDbPoint
 10
332.018904977956
 20
352.9276204460209
 30
0.0
  0
POINT
  5
42C
330
416
100
AcDbEntity
  8
Defpoints
 62
     0
100
AcDbPoint
 10
332.018904977956
 20
335.9985204460209
 30
0.0
  0
POINT
  5
42D
330
416
100
AcDbEntity
  8
Defpoints
 62
     0
100
AcDbPoint
 10
338.2008493499252
 20
335.9985204460209
 30
0.0
  0
ENDBLK
  5
422
330
416
100
AcDbEntity
  8
0
100
AcDbBlockEnd
  0
BLOCK
  5
4EF
330
4E4
100
AcDbEntity
  8
0
100
AcDbBlockBegin
  2
*D14
 70
     1
 10
0.0
 20
0.0
 30
0.0
  3
*D14
  1

  0
LINE
  5
535
330
4E4
100
AcDbEntity
  8
0
 62
     0
370
    -2
100
AcDbLine
 10
332.081404977956
 20
352.9276204460209
 30
0.0
 11
341.085905774333
 21
352.9276204460209
 31
0.0
  0
LINE
  5
536
330
4E4
100
AcDbEntity
  8
0
 62
     0
370
    -2
100
AcDbLine
 10
332.081404977956
 20
335.9985204460209
 30
0.0
 11
341.085905774333
 21
335.9985204460209
 31
0.0
  0
LINE
  5
537
330
4E4
100
AcDbEntity
  8
0
 62
     0
370
    -2
100
AcDbLine
 10
340.905905774333
 20
352.5276204460209
 30
0.0
 11
340.905905774333
 21
345.8864037793542
 31
0.0
  0
LINE
  5
538
330
4E4
100
AcDbEntity
  8
0
 62
     0
370
    -2
100
AcDbLine
 10
340.905905774333
 20
336.3985204460209
 30
0.0
 11
340.905905774333
 21
343.0397371126876
 31
0.0
  0
SOLID
  5
539
330
4E4
100
AcDbEntity
  8
0
 62
     0
100
AcDbTrace
 10
340.8392391076663
 20
352.5276204460209
 30
0.0
 11
340.9725724409996
 21
352.5276204460209
 31
0.0
 12
340.905905774333
 22
352.9276204460209
 32
0.0
 13
340.905905774333
 23
352.9276204460209
 33
0.0
  0
SOLID
  5
53A
330
4E4
100
AcDbEntity
  8
0
 62
     0
100
AcDbTrace
 10
340.8392391076663
 20
336.3985204460209
 30
0.0
 11
340.9725724409996
 21
336.3985204460209
 31
0.0
 12
340.905905774333
 22
335.9985204460209
 32
0.0
 13
340.905905774333
 23
335.9985204460209
 33
0.0
  0
MTEXT
  5
53B
330
4E4
100
AcDbEntity
  8
0
 62
     0
100
AcDbMText
 10
340.9059057743329
 20
344.4630704460209
 30
0.0
 40
0.5
 41
0.0
 71
     5
 72
     1
  1
\A1;16.9291
 11
0.0000000000000001
 21
1.0
 31
0.0
 73
     1
 44
1.0
  0
POINT
  5
53C
330
4E4
100
AcDbEntity
  8
Defpoints
 62
     0
100
AcDbPoint
 10
332.018904977956
 20
352.9276204460209
 30
0.0
  0
POINT
  5
53D
330
4E4
100
AcDbEntity
  8
Defpoints
 62
     0
100
AcDbPoint
 10
332.018904977956
 20
335.9985204460209
 30
0.0
  0
POINT
  5
53E
330
4E4
100
AcDbEntity
  8
Defpoints
 62
     0
100
AcDbPoint
 10
340.905905774333
 20
335.9985204460209
 30
0.0
  0
ENDBLK
  5
4F0
330
4E4
100
AcDbEntity
  8
0
100
AcDbBlockEnd
  0
BLOCK
  5
51D
330
512
100
AcDbEntity
  8
0
100
AcDbBlockBegin
  2
*D15
 70
     1
 10
0.0
 20
0.0
 30
0.0
  3
*D15
  1

  0
LINE
  5
53F
330
512
100
AcDbEntity
  8
0
 62
     0
370
    -2
100
AcDbLine
 10
332.081404977956
 20
352.6520304460209
 30
0.0
 11
338.5076487626209
 21
352.6520304460209
 31
0.0
  0
LINE
  5
540
330
512
100
AcDbEntity
  8
0
 62
     0
370
    -2
100
AcDbLine
 10
332.081404977956
 20
336.274110446021
 30
0.0
 11
338.5076487626209
 21
336.274110446021
 31
0.0
  0
LINE
  5
541
330
512
100
AcDbEntity
  8
0
 62
     0
370
    -2
100
AcDbLine
 10
338.327648762621
 20
352.2520304460209
 30
0.0
 11
338.327648762621
 21
345.9697371126876
 31
0.0
  0
LINE
  5
542
330
512
100
AcDbEntity
  8
0
 62
     0
370
    -2
100
AcDbLine
 10
338.327648762621
 20
336.6741104460209
 30
0.0
 11
338.327648762621
 21
342.9564037793543
 31
0.0
  0
SOLID
  5
543
330
512
100
AcDbEntity
  8
0
 62
     0
100
AcDbTrace
 10
338.2609820959543
 20
352.2520304460209
 30
0.0
 11
338.3943154292876
 21
352.2520304460209
 31
0.0
 12
338.327648762621
 22
352.6520304460209
 32
0.0
 13
338.327648762621
 23
352.6520304460209
 33
0.0
  0
SOLID
  5
544
330
512
100
AcDbEntity
  8
0
 62
     0
100
AcDbTrace
 10
338.2609820959543
 20
336.6741104460209
 30
0.0
 11
338.3943154292876
 21
336.6741104460209
 31
0.0
 12
338.327648762621
 22
336.274110446021
 32
0.0
 13
338.327648762621
 23
336.274110446021
 33
0.0
  0
MTEXT
  5
545
330
512
100
AcDbEntity
  8
0
 62
     0
100
AcDbMText
 10
338.3276487626209
 20
344.4630704460209
 30
0.0
 40
0.5
 41
0.0
 71
     5
 72
     1
  1
\A1;16.3779
 11
0.0000000000000001
 21
1.0
 31
0.0
 73
     1
 44
1.0
  0
POINT
  5
546
330
512
100
AcDbEntity
  8
Defpoints
 62
     0
100
AcDbPoint
 10
332.018904977956
 20
352.6520304460209
 30
0.0
  0
POINT
  5
547
330
512
100
AcDbEntity
  8
Defpoints
 62
     0
100
AcDbPoint
 10
332.018904977956
 20
336.274110446021
 30
0.0
  0
POINT
  5
548
330
512
100
AcDbEntity
  8
Defpoints
 62
     0
100
AcDbPoint
 10
338.327648762621
 20
336.274110446021
 30
0.0
  0
ENDBLK
  5
51E
330
512
100
AcDbEntity
  8
0
100
AcDbBlockEnd
  0
BLOCK
  5
556
330
54B
100
AcDbEntity
  8
0
100
AcDbBlockBegin
  2
*D16
 70
     1
 10
0.0
 20
0.0
 30
0.0
  3
*D16
  1

  0
LINE
  5
59C
330
54B
100
AcDbEntity
  8
0
 62
     0
370
    -2
100
AcDbLine
 10
313.5150049779563
 20
339.1643604460209
 30
0.0
 11
313.5150049779563
 21
333.7160547576902
 31
0.0
  0
LINE
  5
59D
330
54B
100
AcDbEntity
  8
0
 62
     0
370
    -2
100
AcDbLine
 10
334.9716549779564
 20
339.1643604460209
 30
0.0
 11
334.9716549779564
 21
333.7160547576902
 31
0.0
  0
LINE
  5
59E
330
54B
100
AcDbEntity
  8
0
 62
     0
370
    -2
100
AcDbLine
 10
313.9150049779563
 20
333.8960547576902
 30
0.0
 11
322.7366633112897
 21
333.8960547576902
 31
0.0
  0
LINE
  5
59F
330
54B
100
AcDbEntity
  8
0
 62
     0
370
    -2
100
AcDbLine
 10
334.5716549779564
 20
333.8960547576902
 30
0.0
 11
325.749996644623
 21
333.8960547576902
 31
0.0
  0
SOLID
  5
5A0
330
54B
100
AcDbEntity
  8
0
 62
     0
100
AcDbTrace
 10
313.9150049779563
 20
333.9627214243569
 30
0.0
 11
313.9150049779563
 21
333.8293880910236
 31
0.0
 12
313.5150049779563
 22
333.8960547576902
 32
0.0
 13
313.5150049779563
 23
333.8960547576902
 33
0.0
  0
SOLID
  5
5A1
330
54B
100
AcDbEntity
  8
0
 62
     0
100
AcDbTrace
 10
334.5716549779564
 20
333.9627214243569
 30
0.0
 11
334.5716549779564
 21
333.8293880910236
 31
0.0
 12
334.9716549779564
 22
333.8960547576902
 32
0.0
 13
334.9716549779564
 23
333.8960547576902
 33
0.0
  0
MTEXT
  5
5A2
330
54B
100
AcDbEntity
  8
0
 62
     0
100
AcDbMText
 10
324.2433299779564
 20
333.8960547576902
 30
0.0
 40
0.5
 41
0.0
 71
     5
 72
     1
  1
\A1;21.4567
 73
     1
 44
1.0
  0
POINT
  5
5A3
330
54B
100
AcDbEntity
  8
Defpoints
 62
     0
100
AcDbPoint
 10
313.5150049779563
 20
339.2268604460209
 30
0.0
  0
POINT
  5
5A4
330
54B
100
AcDbEntity
  8
Defpoints
 62
     0
100
AcDbPoint
 10
334.9716549779564
 20
339.2268604460209
 30
0.0
  0
POINT
  5
5A5
330
54B
100
AcDbEntity
  8
Defpoints
 62
     0
100
AcDbPoint
 10
334.9716549779564
 20
333.8960547576902
 30
0.0
  0
ENDBLK
  5
557
330
54B
100
AcDbEntity
  8
0
100
AcDbBlockEnd
  0
BLOCK
  5
570
330
565
100
AcDbEntity
  8
0
100
AcDbBlockBegin
  2
*D17
 70
     1
 10
0.0
 20
0.0
 30
0.0
  3
*D17
  1

  0
LINE
  5
592
330
565
100
AcDbEntity
  8
0
 62
     0
370
    -2
100
AcDbLine
 10
313.2394149779552
 20
339.1643604460209
 30
0.0
 11
313.2394149779552
 21
331.7753504061842
 31
0.0
  0
LINE
  5
593
330
565
100
AcDbEntity
  8
0
 62
     0
370
    -2
100
AcDbLine
 10
335.2472449779557
 20
339.1643604460209
 30
0.0
 11
335.2472449779557
 21
331.7753504061842
 31
0.0
  0
LINE
  5
594
330
565
100
AcDbEntity
  8
0
 62
     0
370
    -2
100
AcDbLine
 10
313.6394149779552
 20
331.9553504061842
 30
0.0
 11
322.7366633112888
 21
331.9553504061842
 31
0.0
  0
LINE
  5
595
330
565
100
AcDbEntity
  8
0
 62
     0
370
    -2
100
AcDbLine
 10
334.8472449779557
 20
331.9553504061842
 30
0.0
 11
325.7499966446221
 21
331.9553504061842
 31
0.0
  0
SOLID
  5
596
330
565
100
AcDbEntity
  8
0
 62
     0
100
AcDbTrace
 10
313.6394149779552
 20
332.0220170728509
 30
0.0
 11
313.6394149779552
 21
331.8886837395176
 31
0.0
 12
313.2394149779552
 22
331.9553504061842
 32
0.0
 13
313.2394149779552
 23
331.9553504061842
 33
0.0
  0
SOLID
  5
597
330
565
100
AcDbEntity
  8
0
 62
     0
100
AcDbTrace
 10
334.8472449779557
 20
332.0220170728509
 30
0.0
 11
334.8472449779557
 21
331.8886837395176
 31
0.0
 12
335.2472449779557
 22
331.9553504061842
 32
0.0
 13
335.2472449779557
 23
331.9553504061842
 33
0.0
  0
MTEXT
  5
598
330
565
100
AcDbEntity
  8
0
 62
     0
100
AcDbMText
 10
324.2433299779555
 20
331.9553504061842
 30
0.0
 40
0.5
 41
0.0
 71
     5
 72
     1
  1
\A1;22.0078
 73
     1
 44
1.0
  0
POINT
  5
599
330
565
100
AcDbEntity
  8
Defpoints
 62
     0
100
AcDbPoint
 10
313.2394149779552
 20
339.2268604460209
 30
0.0
  0
POINT
  5
59A
330
565
100
AcDbEntity
  8
Defpoints
 62
     0
100
AcDbPoint
 10
335.2472449779557
 20
339.2268604460209
 30
0.0
  0
POINT
  5
59B
330
565
100
AcDbEntity
  8
Defpoints
 62
     0
100
AcDbPoint
 10
335.2472449779557
 20
331.9553504061842
 30
0.0
  0
ENDBLK
  5
571
330
565
100
AcDbEntity
  8
0
100
AcDbBlockEnd
  0
BLOCK
  5
5AE
330
5A7
100
AcDbEntity
  8
0
100
AcDbBlockBegin
  2
*D18
 70
     1
 10
0.0
 20
0.0
 30
0.0
  3
*D18
  1

  0
LINE
  5
5C8
330
5A7
100
AcDbEntity
  8
0
 62
     0
370
    -2
100
AcDbLine
 10
317.1633801214602
 20
339.6843865585488
 30
0.0
 11
316.7633801214601
 21
339.6843865585488
 31
0.0
  0
LINE
  5
5C9
330
5A7
100
AcDbEntity
  8
0
 62
     0
370
    -2
100
AcDbLine
 10
316.7633801214601
 20
339.6843865585488
 30
0.0
 11
315.0823617953018
 21
337.0827479741673
 31
0.0
  0
MTEXT
  5
5CA
330
5A7
100
AcDbEntity
  8
0
 62
     0
100
AcDbMText
 10
318.7533801214601
 20
339.6843865585489
 30
0.0
 40
0.5
 41
0.0
 71
     5
 72
     1
  1
\A1;R2.9528
 73
     1
 44
1.0
  0
SOLID
  5
5CB
330
5A7
100
AcDbEntity
  8
0
 62
     0
100
AcDbTrace
 10
315.0263669538733
 20
337.1189283856883
 30
0.0
 11
315.1383566367305
 21
337.0465675626463
 31
0.0
 12
314.8652793261759
 22
336.7467789255956
 32
0.0
 13
314.8652793261759
 23
336.7467789255956
 33
0.0
  0
POINT
  5
5CC
330
5A7
100
AcDbEntity
  8
Defpoints
 62
     0
100
AcDbPoint
 10
314.8652793261759
 20
336.7467789255956
 30
0.0
  0
POINT
  5
5CD
330
5A7
100
AcDbEntity
  8
Defpoints
 62
     0
100
AcDbPoint
 10
316.4677549779556
 20
339.2268604460214
 30
0.0
  0
ENDBLK
  5
5AF
330
5A7
100
AcDbEntity
  8
0
100
AcDbBlockEnd
  0
BLOCK
  5
5BF
330
5B9
100
AcDbEntity
  8
0
100
AcDbBlockBegin
  2
*D19
 70
     1
 10
0.0
 20
0.0
 30
0.0
  3
*D19
  1

  0
LINE
  5
5CE
330
5B9
100
AcDbEntity
  8
0
 62
     0
370
    -2
100
AcDbLine
 10
315.2611557762446
 20
351.2729142119283
 30
0.0
 11
314.746771974233
 21
351.9437680616027
 31
0.0
  0
MTEXT
  5
5CF
330
5B9
100
AcDbEntity
  8
0
 62
     0
100
AcDbMText
 10
316.2286359858085
 20
350.011136876539
 30
0.0
 40
0.5
 41
0.0
 71
     5
 72
     1
  1
\A1;R3.2283
 11
0.6084781192225485
 21
-0.7935706511882799
 31
0.0
 73
     1
 44
1.0
  0
SOLID
  5
5D0
330
5B9
100
AcDbEntity
  8
0
 62
     0
100
AcDbTrace
 10
314.7996766843121
 20
351.9843332695509
 30
0.0
 11
314.6938672641537
 21
351.9032028536546
 31
0.0
 12
314.503380726544
 22
352.261196322078
 32
0.0
 13
314.503380726544
 23
352.261196322078
 33
0.0
  0
POINT
  5
5D1
330
5B9
100
AcDbEntity
  8
Defpoints
 62
     0
100
AcDbPoint
 10
314.503380726544
 20
352.261196322078
 30
0.0
  0
POINT
  5
5D2
330
5B9
100
AcDbEntity
  8
Defpoints
 62
     0
100
AcDbPoint
 10
316.4677549779548
 20
349.699280446021
 30
0.0
  0
ENDBLK
  5
5C0
330
5B9
100
AcDbEntity
  8
0
100
AcDbBlockEnd
  0
ENDSEC
  0
SECTION
  2
ENTITIES
  0
TEXT
  5
35E
330
21
100
AcDbEntity
  8
0
100
AcDbText
 10
321.4147621511607
 20
343.7916815225739
 30
0.0
 40
1.0
  1
OM-2318
100
AcDbText
  0
TEXT
  5
36B
330
21
100
AcDbEntity
  8
0
 62
     5
100
AcDbText
 10
315.4868849763244
 20
325.8518486981845
 30
0.0
 40
0.5
  1
(C)2009 DOMAIN INDUSTRIES, INC.
100
AcDbText
  0
INSERT
  5
36C
330
21
100
AcDbEntity
  8
0
100
AcDbBlockReference
  2
*U10
 10
313.6247630977875
 20
331.473019637073
 30
0.0
  0
LINE
  5
386
102
{ACAD_REACTORS
330
563
102
}
330
21
100
AcDbEntity
  8
\M+5D0E9\M+5CFDF
370
    40
100
AcDbLine
 10
334.9716549779564
 20
349.6992804460209
 30
0.0
 11
334.9716549779564
 21
339.2268604460209
 31
0.0
  0
LINE
  5
387
102
{ACAD_REACTORS
330
57D
102
}
330
21
100
AcDbEntity
  8
0
370
    40
100
AcDbLine
 10
335.2472449779557
 20
349.6992804460209
 30
0.0
 11
335.2472449779557
 21
339.2268604460209
 31
0.0
  0
ARC
  5
388
330
21
100
AcDbEntity
  8
\M+5D0E9\M+5CFDF
370
    40
100
AcDbCircle
 10
332.018904977956
 20
339.2268604460209
 30
0.0
 40
2.952749999999999
100
AcDbArc
 50
270.0
 51
0.0
  0
ARC
  5
389
330
21
100
AcDbEntity
  8
0
370
    40
100
AcDbCircle
 10
332.018904977956
 20
339.2268604460209
 30
0.0
 40
3.22834
100
AcDbArc
 50
270.0
 51
0.0
  0
LINE
  5
38A
102
{ACAD_REACTORS
330
52A
102
}
330
21
100
AcDbEntity
  8
\M+5D0E9\M+5CFDF
370
    40
100
AcDbLine
 10
332.018904977956
 20
336.274110446021
 30
0.0
 11
316.4677549779549
 21
336.274110446021
 31
0.0
  0
LINE
  5
38B
102
{ACAD_REACTORS
330
4FC
102
}
330
21
100
AcDbEntity
  8
0
370
    40
100
AcDbLine
 10
332.018904977956
 20
335.9985204460209
 30
0.0
 11
316.4677549779549
 21
335.9985204460209
 31
0.0
  0
ARC
  5
38C
102
{ACAD_REACTORS
330
5B7
102
}
330
21
100
AcDbEntity
  8
\M+5D0E9\M+5CFDF
370
    40
100
AcDbCircle
 10
316.4677549779549
 20
339.2268604460209
 30
0.0
 40
2.952749999999999
100
AcDbArc
 50
180.0
 51
270.0
  0
ARC
  5
38D
330
21
100
AcDbEntity
  8
0
370
    40
100
AcDbCircle
 10
316.4677549779549
 20
339.2268604460209
 30
0.0
 40
3.22834
100
AcDbArc
 50
180.0
 51
270.0
  0
LINE
  5
38E
102
{ACAD_REACTORS
330
563
102
}
330
21
100
AcDbEntity
  8
\M+5D0E9\M+5CFDF
370
    40
100
AcDbLine
 10
313.5150049779563
 20
339.2268604460209
 30
0.0
 11
313.5150049779563
 21
349.6992804460209
 31
0.0
  0
LINE
  5
38F
102
{ACAD_REACTORS
330
57D
102
}
330
21
100
AcDbEntity
  8
0
370
    40
100
AcDbLine
 10
313.2394149779552
 20
339.2268604460209
 30
0.0
 11
313.2394149779552
 21
349.6992804460209
 31
0.0
  0
ARC
  5
390
330
21
100
AcDbEntity
  8
\M+5D0E9\M+5CFDF
370
    40
100
AcDbCircle
 10
316.4677549779549
 20
349.6992804460209
 30
0.0
 40
2.952749999999999
100
AcDbArc
 50
90.0
 51
180.0
  0
ARC
  5
391
102
{ACAD_REACTORS
330
5C7
102
}
330
21
100
AcDbEntity
  8
0
370
    40
100
AcDbCircle
 10
316.4677549779549
 20
349.6992804460209
 30
0.0
 40
3.22834
100
AcDbArc
 50
90.0
 51
180.0
  0
LINE
  5
392
102
{ACAD_REACTORS
330
52A
102
}
330
21
100
AcDbEntity
  8
\M+5D0E9\M+5CFDF
370
    40
100
AcDbLine
 10
316.4677549779549
 20
352.6520304460209
 30
0.0
 11
332.018904977956
 21
352.6520304460209
 31
0.0
  0
LINE
  5
393
102
{ACAD_REACTORS
330
4FC
102
}
330
21
100
AcDbEntity
  8
0
370
    40
100
AcDbLine
 10
316.4677549779549
 20
352.9276204460209
 30
0.0
 11
332.018904977956
 21
352.9276204460209
 31
0.0
  0
ARC
  5
394
330
21
100
AcDbEntity
  8
\M+5D0E9\M+5CFDF
370
    40
100
AcDbCircle
 10
332.018904977956
 20
349.6992804460209
 30
0.0
 40
2.952749999999999
100
AcDbArc
 50
0.0
 51
90.0
  0
ARC
  5
395
330
21
100
AcDbEntity
  8
0
370
    40
100
AcDbCircle
 10
332.018904977956
 20
349.6992804460209
 30
0.0
 40
3.22834
100
AcDbArc
 50
0.0
 51
90.0
  0
DIMENSION
  5
4E3
102
{ACAD_XDICTIONARY
360
4F1
102
}
102
{ACAD_REACTORS
330
4FC
102
}
330
21
100
AcDbEntity
  8
0
 62
     3
100
AcDbDimension
  2
*D14
 10
340.905905774333
 20
335.9985204460209
 30
0.0
 11
340.9059057743329
 21
344.4630704460209
 31
0.0
 70
   160
 71
     5
 42
16.9291
  3
Standard
100
AcDbAlignedDimension
 13
332.018904977956
 23
352.9276204460209
 33
0.0
 14
332.018904977956
 24
335.9985204460209
 34
0.0
 50
90.0
100
AcDbRotatedDimension
  0
DIMENSION
  5
511
102
{ACAD_XDICTIONARY
360
51F
102
}
102
{ACAD_REACTORS
330
52A
102
}
330
21
100
AcDbEntity
  8
0
 62
     3
100
AcDbDimension
  2
*D15
 10
338.327648762621
 20
336.274110446021
 30
0.0
 11
338.3276487626209
 21
344.4630704460209
 31
0.0
 70
    32
 71
     5
 42
16.37791999999996
  3
Standard
100
AcDbAlignedDimension
 13
332.018904977956
 23
352.6520304460209
 33
0.0
 14
332.018904977956
 24
336.274110446021
 34
0.0
 50
90.0
100
AcDbRotatedDimension
  0
DIMENSION
  5
54A
102
{ACAD_XDICTIONARY
360
558
102
}
102
{ACAD_REACTORS
330
563
102
}
330
21
100
AcDbEntity
  8
0
 62
     3
100
AcDbDimension
  2
*D16
 10
334.9716549779564
 20
333.8960547576902
 30
0.0
 11
324.2433299779564
 21
333.8960547576902
 31
0.0
 70
   160
 71
     5
 42
21.45665000000008
  3
Standard
100
AcDbAlignedDimension
 13
313.5150049779563
 23
339.2268604460209
 33
0.0
 14
334.9716549779564
 24
339.2268604460209
 34
0.0
100
AcDbRotatedDimension
  0
DIMENSION
  5
564
102
{ACAD_XDICTIONARY
360
572
102
}
102
{ACAD_REACTORS
330
57D
102
}
330
21
100
AcDbEntity
  8
0
 62
     3
100
AcDbDimension
  2
*D17
 10
335.2472449779557
 20
331.9553504061842
 30
0.0
 11
324.2433299779555
 21
331.9553504061842
 31
0.0
 70
   160
 71
     5
 42
22.00783000000047
  3
Standard
100
AcDbAlignedDimension
 13
313.2394149779552
 23
339.2268604460209
 33
0.0
 14
335.2472449779557
 24
339.2268604460209
 34
0.0
100
AcDbRotatedDimension
  0
DIMENSION
  5
5A6
102
{ACAD_XDICTIONARY
360
5B0
102
}
102
{ACAD_REACTORS
330
5B7
102
}
330
21
100
AcDbEntity
  8
0
 62
     3
100
AcDbDimension
  2
*D18
 10
316.4677549779556
 20
339.2268604460214
 30
0.0
 11
316.7633801214601
 21
339.6843865585489
 31
0.0
 70
   164
 71
     5
 42
2.952750000000719
  3
Standard
100
AcDbRadialDimension
 15
314.8652793261759
 25
336.7467789255956
 35
0.0
 40
0.0
1001
ACAD
1000
DSTYLE
1002
{
1070
   279
1070
     1
1070
   288
1070
     1
1002
}
  0
DIMENSION
  5
5B8
102
{ACAD_XDICTIONARY
360
5C1
102
}
102
{ACAD_REACTORS
330
5C7
102
}
330
21
100
AcDbEntity
  8
0
 62
     3
100
AcDbDimension
  2
*D19
 10
316.4677549779548
 20
349.699280446021
 30
0.0
 11
316.2286359858085
 21
350.011136876539
 31
0.0
 70
   164
 71
     5
 42
3.22833999999986
  3
Standard
100
AcDbRadialDimension
 15
314.503380726544
 25
352.261196322078
 35
0.0
 40
0.0
1001
ACAD
1000
DSTYLE
1002
{
1070
   288
1070
     1
1002
}
  0
ENDSEC
  0
SECTION
  2
OBJECTS
  0
DICTIONARY
  5
C
330
0
100
AcDbDictionary
281
     1
  3
ACAD_COLOR
350
1C
  3
ACAD_GROUP
350
D
  3
ACAD_LAYOUT
350
1A
  3
ACAD_MATERIAL
350
1B
  3
ACAD_MLINESTYLE
350
17
  3
ACAD_PLOTSETTINGS
350
19
  3
ACAD_PLOTSTYLENAME
350
E
  3
AcDbVariableDictionary
350
2FF
  3
ASE_INDEX_DICTIONARY
350
2FC
  0
DICTIONARY
  5
4F1
330
4E3
100
AcDbDictionary
280
     1
281
     1
  3
ACAD_DIMASSOC
360
4FC
  0
DICTIONARY
  5
51F
330
511
100
AcDbDictionary
280
     1
281
     1
  3
ACAD_DIMASSOC
360
52A
  0
DICTIONARY
  5
558
330
54A
100
AcDbDictionary
280
     1
281
     1
  3
ACAD_DIMASSOC
360
563
  0
DICTIONARY
  5
572
330
564
100
AcDbDictionary
280
     1
281
     1
  3
ACAD_DIMASSOC
360
57D
  0
DICTIONARY
  5
5B0
330
5A6
100
AcDbDictionary
280
     1
281
     1
  3
ACAD_DIMASSOC
360
5B7
  0
DICTIONARY
  5
5C1
330
5B8
100
AcDbDictionary
280
     1
281
     1
  3
ACAD_DIMASSOC
360
5C7
  0
DICTIONARY
  5
1C
102
{ACAD_REACTORS
330
C
102
}
330
C
100
AcDbDictionary
281
     1
  0
DICTIONARY
  5
D
102
{ACAD_REACTORS
330
C
102
}
330
C
100
AcDbDictionary
281
     1
  0
DICTIONARY
  5
1A
102
{ACAD_REACTORS
330
C
102
}
330
C
100
AcDbDictionary
281
     1
  3
\M+5B2BC\M+5BED61
350
20
  3
\M+5B2BC\M+5BED62
350
28
  3
Model
350
24
  0
DICTIONARY
  5
1B
102
{ACAD_REACTORS
330
C
102
}
330
C
100
AcDbDictionary
281
     1
  0
DICTIONARY
  5
17
102
{ACAD_REACTORS
330
C
102
}
330
C
100
AcDbDictionary
281
     1
  3
Standard
350
18
  0
DICTIONARY
  5
19
102
{ACAD_REACTORS
330
C
102
}
330
C
100
AcDbDictionary
281
     1
  0
ACDBDICTIONARYWDFLT
  5
E
102
{ACAD_REACTORS
330
C
102
}
330
C
100
AcDbDictionary
281
     1
  3
Normal
350
F
100
AcDbDictionaryWithDefault
340
F
  0
DICTIONARY
  5
2FF
102
{ACAD_REACTORS
330
C
102
}
330
C
100
AcDbDictionary
281
     1
  3
DIMASSOC
350
301
  3
HIDETEXT
350
300
  3
PROJECTNAME
350
302
  0
DICTIONARY
  5
2FC
102
{ACAD_REACTORS
330
C
102
}
330
C
100
AcDbDictionary
281
     1
  3
ASEBlockHierarchyIndexRecord
350
2FE
1001
DCO15
1040
1619956071.812
  0
DIMASSOC
  5
4FC
102
{ACAD_REACTORS
330
4F1
102
}
330
4F1
100
AcDbDimAssoc
330
4E3
 90
        3
 70
     0
 71
     0
  1
AcDbOsnapPointRef
 72
     1
331
393
 73
     2
 91
        0
 40
1.0
 10
332.018904977956
 20
352.9276204460209
 30
0.0
 75
     0
  1
AcDbOsnapPointRef
 72
    13
331
38B
 73
     2
 91
        0
 40
0.0
 10
332.018904977956
 20
335.9985204460209
 30
0.0
 75
     0
  0
DIMASSOC
  5
52A
102
{ACAD_REACTORS
330
51F
102
}
330
51F
100
AcDbDimAssoc
330
511
 90
        3
 70
     0
 71
     0
  1
AcDbOsnapPointRef
 72
     1
331
392
 73
     2
 91
        0
 40
1.0
 10
332.018904977956
 20
352.6520304460209
 30
0.0
 75
     0
  1
AcDbOsnapPointRef
 72
    13
331
38A
 73
     2
 91
        0
 40
0.0
 10
332.018904977956
 20
336.274110446021
 30
0.0
 75
     0
  0
DIMASSOC
  5
563
102
{ACAD_REACTORS
330
558
102
}
330
558
100
AcDbDimAssoc
330
54A
 90
        3
 70
     0
 71
     0
  1
AcDbOsnapPointRef
 72
    13
331
38E
 73
     2
 91
        0
 40
0.0
 10
313.5150049779563
 20
339.2268604460209
 30
0.0
 75
     0
  1
AcDbOsnapPointRef
 72
     1
331
386
 73
     2
 91
        0
 40
1.0
 10
334.9716549779564
 20
339.2268604460209
 30
0.0
 75
     0
  0
DIMASSOC
  5
57D
102
{ACAD_REACTORS
330
572
102
}
330
572
100
AcDbDimAssoc
330
564
 90
        3
 70
     0
 71
     0
  1
AcDbOsnapPointRef
 72
    13
331
38F
 73
     2
 91
        0
 40
0.0
 10
313.2394149779552
 20
339.2268604460209
 30
0.0
 75
     0
  1
AcDbOsnapPointRef
 72
     1
331
387
 73
     2
 91
        0
 40
1.0
 10
335.2472449779557
 20
339.2268604460209
 30
0.0
 75
     0
  0
DIMASSOC
  5
5B7
102
{ACAD_REACTORS
330
5B0
102
}
330
5B0
100
AcDbDimAssoc
330
5A6
 90
        2
 70
     0
 71
     0
  1
AcDbOsnapPointRef
 72
     3
331
38C
 73
     2
 91
        0
 40
0.0
 10
0.0
 20
0.0
 30
0.0
 75
     0
  0
DIMASSOC
  5
5C7
102
{ACAD_REACTORS
330
5C1
102
}
330
5C1
100
AcDbDimAssoc
330
5B8
 90
        2
 70
     0
 71
     0
  1
AcDbOsnapPointRef
 72
     3
331
391
 73
     2
 91
        0
 40
0.0
 10
0.0
 20
0.0
 30
0.0
 75
     0
  0
LAYOUT
  5
20
102
{ACAD_XDICTIONARY
360
307
102
}
102
{ACAD_REACTORS
330
1A
102
}
330
1A
100
AcDbPlotSettings
  1

  2
\M+5D4DA BENNG \M+5C9CF\M+5D7D4\M+5B6AF FX DocuPrint 255-AP
  4

  6

 40
0.0
 41
0.0
 42
0.0
 43
0.0
 44
0.0
 45
0.0
 46
0.0
 47
0.0
 48
0.0
 49
0.0
140
0.0
141
0.0
142
1.0
143
1.0
 70
   688
 72
     0
 73
     0
 74
     5
  7

 75
    16
147
1.0
148
0.0
149
0.0
100
AcDbLayout
  1
\M+5B2BC\M+5BED61
 70
     1
 71
     1
 10
0.0
 20
0.0
 11
12.0
 21
9.0
 12
0.0
 22
0.0
 32
0.0
 14
1.000000000000000E+20
 24
1.000000000000000E+20
 34
1.000000000000000E+20
 15
-1.000000000000000E+20
 25
-1.000000000000000E+20
 35
-1.000000000000000E+20
146
0.0
 13
0.0
 23
0.0
 33
0.0
 16
1.0
 26
0.0
 36
0.0
 17
0.0
 27
1.0
 37
0.0
 76
     0
330
1D
  0
LAYOUT
  5
28
102
{ACAD_XDICTIONARY
360
30B
102
}
102
{ACAD_REACTORS
330
1A
102
}
330
1A
100
AcDbPlotSettings
  1

  2
\M+5D4DA BENNG \M+5C9CF\M+5D7D4\M+5B6AF FX DocuPrint 255-AP
  4

  6

 40
0.0
 41
0.0
 42
0.0
 43
0.0
 44
0.0
 45
0.0
 46
0.0
 47
0.0
 48
0.0
 49
0.0
140
0.0
141
0.0
142
1.0
143
1.0
 70
   688
 72
     0
 73
     0
 74
     5
  7

 75
    16
147
1.0
148
0.0
149
0.0
100
AcDbLayout
  1
\M+5B2BC\M+5BED62
 70
     1
 71
     2
 10
0.0
 20
0.0
 11
12.0
 21
9.0
 12
0.0
 22
0.0
 32
0.0
 14
0.0
 24
0.0
 34
0.0
 15
0.0
 25
0.0
 35
0.0
146
0.0
 13
0.0
 23
0.0
 33
0.0
 16
1.0
 26
0.0
 36
0.0
 17
0.0
 27
1.0
 37
0.0
 76
     0
330
25
  0
LAYOUT
  5
24
102
{ACAD_XDICTIONARY
360
309
102
}
102
{ACAD_REACTORS
330
1A
102
}
330
1A
100
AcDbPlotSettings
  1

  2
\M+5D4DA BENNG \M+5C9CF\M+5D7D4\M+5B6AF FX DocuPrint 255-AP
  4

  6

 40
0.0
 41
0.0
 42
0.0
 43
0.0
 44
0.0
 45
0.0
 46
0.0
 47
0.0
 48
0.0
 49
0.0
140
0.0
141
0.0
142
1.0
143
1.0
 70
  1712
 72
     0
 73
     0
 74
     0
  7

 75
     0
147
1.0
148
0.0
149
0.0
100
AcDbLayout
  1
Model
 70
     1
 71
     0
 10
0.0
 20
0.0
 11
12.0
 21
9.0
 12
0.0
 22
0.0
 32
0.0
 14
0.0
 24
0.0
 34
0.0
 15
0.0
 25
0.0
 35
0.0
146
0.0
 13
0.0
 23
0.0
 33
0.0
 16
1.0
 26
0.0
 36
0.0
 17
0.0
 27
1.0
 37
0.0
 76
     0
330
21
  0
MLINESTYLE
  5
18
102
{ACAD_REACTORS
330
17
102
}
330
17
100
AcDbMlineStyle
  2
STANDARD
 70
     0
  3

 62
   256
 51
90.0
 52
90.0
 71
     2
 49
0.5
 62
   256
  6
BYLAYER
 49
-0.5
 62
   256
  6
BYLAYER
  0
ACDBPLACEHOLDER
  5
F
102
{ACAD_REACTORS
330
E
102
}
330
E
  0
DICTIONARYVAR
  5
301
102
{ACAD_REACTORS
330
2FF
102
}
330
2FF
100
DictionaryVariables
280
     0
  1
2
  0
DICTIONARYVAR
  5
300
102
{ACAD_REACTORS
330
2FF
102
}
330
2FF
100
DictionaryVariables
280
     0
  1
1
  0
DICTIONARYVAR
  5
302
102
{ACAD_REACTORS
330
2FF
102
}
330
2FF
100
DictionaryVariables
280
     0
  1

  0
XRECORD
  5
2FE
102
{ACAD_REACTORS
330
2FC
102
}
330
2FC
100
AcDbXrecord
280
     1
  0
DICTIONARY
  5
307
330
20
100
AcDbDictionary
280
     1
281
     1
  3
ACAD_XREC_ROUNDTRIP
360
308
  0
DICTIONARY
  5
30B
330
28
100
AcDbDictionary
280
     1
281
     1
  3
ACAD_XREC_ROUNDTRIP
360
30C
  0
DICTIONARY
  5
309
330
24
100
AcDbDictionary
280
     1
281
     1
  3
ACAD_XREC_ROUNDTRIP
360
30A
  0
XRECORD
  5
308
102
{ACAD_REACTORS
330
307
102
}
330
307
100
AcDbXrecord
280
     1
102
SHADEPLOT
 70
     0
102
SHADEPLOTRESLEVEL
 70
     2
102
SHADEPLOTCUSTOMDPI
 70
   300
  0
XRECORD
  5
30C
102
{ACAD_REACTORS
330
30B
102
}
330
30B
100
AcDbXrecord
280
     1
102
SHADEPLOT
 70
     0
102
SHADEPLOTRESLEVEL
 70
     2
102
SHADEPLOTCUSTOMDPI
 70
   300
  0
XRECORD
  5
30A
102
{ACAD_REACTORS
330
309
102
}
330
309
100
AcDbXrecord
280
     1
102
SHADEPLOT
 70
     0
102
SHADEPLOTRESLEVEL
 70
     2
102
SHADEPLOTCUSTOMDPI
 70
   300
  0
ENDSEC
  0
EOF
