  0
SECTION
  2
HEADER
  9
$ACADVER
  1
AC1015
  9
$ACADMAINTVER
 70
    13
  9
$DWGCODEPAGE
  3
ANSI_1252
  9
$INSBASE
 10
0.0
 20
0.0
 30
0.0
  9
$EXTMIN
 10
350.7123391198367
 20
328.7297020472694
 30
-0.0000000000112498
  9
$EXTMAX
 10
371.093510859936
 20
352.2554882405998
 30
0.0000000000002956
  9
$LIMMIN
 10
0.0
 20
0.0
  9
$LIMMAX
 10
12.0
 20
9.0
  9
$ORTHOMODE
 70
     1
  9
$REGENMODE
 70
     1
  9
$FILLMODE
 70
     1
  9
$QTEXTMODE
 70
     0
  9
$MIRRTEXT
 70
     0
  9
$LTSCALE
 40
1.0
  9
$ATTMODE
 70
     1
  9
$TEXTSIZE
 40
0.2
  9
$TRACEWID
 40
0.05
  9
$TEXTSTYLE
  7
Standard
  9
$CLAYER
  8
0
  9
$CELTYPE
  6
ByLayer
  9
$CECOLOR
 62
   256
  9
$CELTSCALE
 40
1.0
  9
$DISPSILH
 70
     0
  9
$DIMSCALE
 40
1.0
  9
$DIMASZ
 40
0.4
  9
$DIMEXO
 40
0.0625
  9
$DIMDLI
 40
0.38
  9
$DIMRND
 40
0.0
  9
$DIMDLE
 40
0.0
  9
$DIMEXE
 40
0.18
  9
$DIMTP
 40
0.0
  9
$DIMTM
 40
0.0
  9
$DIMTXT
 40
0.5
  9
$DIMCEN
 40
0.09
  9
$DIMTSZ
 40
0.0
  9
$DIMTOL
 70
     0
  9
$DIMLIM
 70
     0
  9
$DIMTIH
 70
     0
  9
$DIMTOH
 70
     1
  9
$DIMSE1
 70
     0
  9
$DIMSE2
 70
     0
  9
$DIMTAD
 70
     0
  9
$DIMZIN
 70
     0
  9
$DIMBLK
  1

  9
$DIMASO
 70
     1
  9
$DIMSHO
 70
     1
  9
$DIMPOST
  1

  9
$DIMAPOST
  1

  9
$DIMALT
 70
     0
  9
$DIMALTD
 70
     2
  9
$DIMALTF
 40
25.4
  9
$DIMLFAC
 40
1.0
  9
$DIMTOFL
 70
     0
  9
$DIMTVP
 40
0.0
  9
$DIMTIX
 70
     0
  9
$DIMSOXD
 70
     0
  9
$DIMSAH
 70
     0
  9
$DIMBLK1
  1

  9
$DIMBLK2
  1

  9
$DIMSTYLE
  2
Standard
  9
$DIMCLRD
 70
     0
  9
$DIMCLRE
 70
     0
  9
$DIMCLRT
 70
     0
  9
$DIMTFAC
 40
1.0
  9
$DIMGAP
 40
0.09
  9
$DIMJUST
 70
     0
  9
$DIMSD1
 70
     0
  9
$DIMSD2
 70
     0
  9
$DIMTOLJ
 70
     1
  9
$DIMTZIN
 70
     0
  9
$DIMALTZ
 70
     0
  9
$DIMALTTZ
 70
     0
  9
$DIMUPT
 70
     0
  9
$DIMDEC
 70
     4
  9
$DIMTDEC
 70
     4
  9
$DIMALTU
 70
     2
  9
$DIMALTTD
 70
     2
  9
$DIMTXSTY
  7
Standard
  9
$DIMAUNIT
 70
     0
  9
$DIMADEC
 70
     0
  9
$DIMALTRND
 40
0.0
  9
$DIMAZIN
 70
     0
  9
$DIMDSEP
 70
    46
  9
$DIMATFIT
 70
     3
  9
$DIMFRAC
 70
     0
  9
$DIMLDRBLK
  1

  9
$DIMLUNIT
 70
     2
  9
$DIMLWD
 70
    -2
  9
$DIMLWE
 70
    -2
  9
$DIMTMOVE
 70
     0
  9
$LUNITS
 70
     2
  9
$LUPREC
 70
     4
  9
$SKETCHINC
 40
0.1
  9
$FILLETRAD
 40
0.0
  9
$AUNITS
 70
     0
  9
$AUPREC
 70
     0
  9
$MENU
  1
.
  9
$ELEVATION
 40
0.0
  9
$PELEVATION
 40
0.0
  9
$THICKNESS
 40
0.0
  9
$LIMCHECK
 70
     0
  9
$CHAMFERA
 40
0.0
  9
$CHAMFERB
 40
0.0
  9
$CHAMFERC
 40
0.0
  9
$CHAMFERD
 40
0.0
  9
$SKPOLY
 70
     0
  9
$TDCREATE
 40
2454362.833726666
  9
$TDUCREATE
 40
2454363.042059999
  9
$TDUPDATE
 40
2454994.637694224
  9
$TDUUPDATE
 40
2454994.846027557
  9
$TDINDWG
 40
0.0141476852
  9
$TDUSRTIMER
 40
0.0141475000
  9
$USRTIMER
 70
     1
  9
$ANGBASE
 50
0.0
  9
$ANGDIR
 70
     0
  9
$PDMODE
 70
     0
  9
$PDSIZE
 40
0.0
  9
$PLINEWID
 40
0.0
  9
$SPLFRAME
 70
     0
  9
$SPLINETYPE
 70
     6
  9
$SPLINESEGS
 70
     8
  9
$HANDSEED
  5
665
  9
$SURFTAB1
 70
     6
  9
$SURFTAB2
 70
     6
  9
$SURFTYPE
 70
     6
  9
$SURFU
 70
     6
  9
$SURFV
 70
     6
  9
$UCSBASE
  2

  9
$UCSNAME
  2

  9
$UCSORG
 10
0.0
 20
0.0
 30
0.0
  9
$UCSXDIR
 10
1.0
 20
0.0
 30
0.0
  9
$UCSYDIR
 10
0.0
 20
1.0
 30
0.0
  9
$UCSORTHOREF
  2

  9
$UCSORTHOVIEW
 70
     0
  9
$UCSORGTOP
 10
0.0
 20
0.0
 30
0.0
  9
$UCSORGBOTTOM
 10
0.0
 20
0.0
 30
0.0
  9
$UCSORGLEFT
 10
0.0
 20
0.0
 30
0.0
  9
$UCSORGRIGHT
 10
0.0
 20
0.0
 30
0.0
  9
$UCSORGFRONT
 10
0.0
 20
0.0
 30
0.0
  9
$UCSORGBACK
 10
0.0
 20
0.0
 30
0.0
  9
$PUCSBASE
  2

  9
$PUCSNAME
  2

  9
$PUCSORG
 10
0.0
 20
0.0
 30
0.0
  9
$PUCSXDIR
 10
1.0
 20
0.0
 30
0.0
  9
$PUCSYDIR
 10
0.0
 20
1.0
 30
0.0
  9
$PUCSORTHOREF
  2

  9
$PUCSORTHOVIEW
 70
     0
  9
$PUCSORGTOP
 10
0.0
 20
0.0
 30
0.0
  9
$PUCSORGBOTTOM
 10
0.0
 20
0.0
 30
0.0
  9
$PUCSORGLEFT
 10
0.0
 20
0.0
 30
0.0
  9
$PUCSORGRIGHT
 10
0.0
 20
0.0
 30
0.0
  9
$PUCSORGFRONT
 10
0.0
 20
0.0
 30
0.0
  9
$PUCSORGBACK
 10
0.0
 20
0.0
 30
0.0
  9
$USERI1
 70
     0
  9
$USERI2
 70
     0
  9
$USERI3
 70
     0
  9
$USERI4
 70
     0
  9
$USERI5
 70
     0
  9
$USERR1
 40
0.0
  9
$USERR2
 40
0.0
  9
$USERR3
 40
0.0
  9
$USERR4
 40
0.0
  9
$USERR5
 40
0.0
  9
$WORLDVIEW
 70
     1
  9
$SHADEDGE
 70
     3
  9
$SHADEDIF
 70
    70
  9
$TILEMODE
 70
     1
  9
$MAXACTVP
 70
    64
  9
$PINSBASE
 10
0.0
 20
0.0
 30
0.0
  9
$PLIMCHECK
 70
     0
  9
$PEXTMIN
 10
1.000000000000000E+20
 20
1.000000000000000E+20
 30
1.000000000000000E+20
  9
$PEXTMAX
 10
-1.000000000000000E+20
 20
-1.000000000000000E+20
 30
-1.000000000000000E+20
  9
$PLIMMIN
 10
0.0
 20
0.0
  9
$PLIMMAX
 10
12.0
 20
9.0
  9
$UNITMODE
 70
     0
  9
$VISRETAIN
 70
     1
  9
$PLINEGEN
 70
     0
  9
$PSLTSCALE
 70
     1
  9
$TREEDEPTH
 70
  3020
  9
$CMLSTYLE
  2
Standard
  9
$CMLJUST
 70
     0
  9
$CMLSCALE
 40
1.0
  9
$PROXYGRAPHICS
 70
     1
  9
$MEASUREMENT
 70
     0
  9
$CELWEIGHT
370
    -1
  9
$ENDCAPS
280
     0
  9
$JOINSTYLE
280
     0
  9
$LWDISPLAY
290
     0
  9
$INSUNITS
 70
     1
  9
$HYPERLINKBASE
  1

  9
$STYLESHEET
  1

  9
$XEDIT
290
     1
  9
$CEPSNTYPE
380
     0
  9
$PSTYLEMODE
290
     1
  9
$FINGERPRINTGUID
  2
{0E531C3A-B7F7-4903-B082-D345C3A4B74B}
  9
$VERSIONGUID
  2
{5EAF2653-E61A-4E28-B698-27D367CB5172}
  9
$EXTNAMES
290
     1
  9
$PSVPSCALE
 40
0.0
  9
$OLESTARTUP
290
     0
  0
ENDSEC
  0
SECTION
  2
CLASSES
  0
CLASS
  1
ACDBDICTIONARYWDFLT
  2
AcDbDictionaryWithDefault
  3
AutoCAD 2000
 90
        0
280
     0
281
     0
  0
CLASS
  1
DIMASSOC
  2
AcDbDimAssoc
  3
"AcDbDimAssoc|Product Desc:     AcDim ARX App For Dimension|Company:          Autodesk, Inc.|WEB Address:      www.autodesk.com"
 90
        0
280
     0
281
     0
  0
CLASS
  1
SORTENTSTABLE
  2
AcDbSortentsTable
  3
AutoCAD 2000
 90
    32768
280
     0
281
     0
  0
CLASS
  1
DICTIONARYVAR
  2
AcDbDictionaryVar
  3
AutoCAD 2000
 90
        0
280
     0
281
     0
  0
CLASS
  1
ACDBPLACEHOLDER
  2
AcDbPlaceHolder
  3
AutoCAD 2000
 90
        0
280
     0
281
     0
  0
CLASS
  1
LAYOUT
  2
AcDbLayout
  3
AutoCAD 2000
 90
        0
280
     0
281
     0
  0
ENDSEC
  0
SECTION
  2
TABLES
  0
TABLE
  2
VPORT
  5
8
330
0
100
AcDbSymbolTable
 70
     6
  0
VPORT
  5
664
330
8
100
AcDbSymbolTableRecord
100
AcDbViewportTableRecord
  2
*Active
 70
     0
 10
0.0
 20
0.0
 11
1.0
 21
1.0
 12
362.8985496082102
 22
338.2976795173707
 13
0.0
 23
0.0
 14
0.5
 24
0.5
 15
0.5
 25
0.5
 16
0.0
 26
0.0
 36
1.0
 17
0.0
 27
0.0
 37
0.0
 40
33.16419502402748
 41
2.045918367346938
 42
50.0
 43
0.0
 44
0.0
 50
0.0
 51
0.0
 71
     0
 72
  1000
 73
     1
 74
     3
 75
     0
 76
     0
 77
     0
 78
     0
281
     0
 65
     1
110
0.0
120
0.0
130
0.0
111
1.0
121
0.0
131
0.0
112
0.0
122
1.0
132
0.0
 79
     0
146
0.0
  0
ENDTAB
  0
TABLE
  2
LTYPE
  5
5
330
0
100
AcDbSymbolTable
 70
     3
  0
LTYPE
  5
14
330
5
100
AcDbSymbolTableRecord
100
AcDbLinetypeTableRecord
  2
ByBlock
 70
     0
  3

 72
    65
 73
     0
 40
0.0
  0
LTYPE
  5
15
330
5
100
AcDbSymbolTableRecord
100
AcDbLinetypeTableRecord
  2
ByLayer
 70
     0
  3

 72
    65
 73
     0
 40
0.0
  0
LTYPE
  5
16
330
5
100
AcDbSymbolTableRecord
100
AcDbLinetypeTableRecord
  2
Continuous
 70
     0
  3
Solid line
 72
    65
 73
     0
 40
0.0
  0
LTYPE
  5
9B
330
5
100
AcDbSymbolTableRecord
100
AcDbLinetypeTableRecord
  2
CENTERX2
 70
     0
  3
Center (2x) ________  __  ________  __  _____
 72
    65
 73
     4
 40
101.6
 49
63.5
 74
     0
 49
-12.7
 74
     0
 49
12.7
 74
     0
 49
-12.7
 74
     0
  0
LTYPE
  5
9C
330
5
100
AcDbSymbolTableRecord
100
AcDbLinetypeTableRecord
  2
HIDDENX2
 70
     0
  3
Hidden (2x) ____ ____ ____ ____ ____ ____ ____
 72
    65
 73
     2
 40
19.05
 49
12.7
 74
     0
 49
-6.349999999999997
 74
     0
  0
ENDTAB
  0
TABLE
  2
LAYER
  5
2
330
0
100
AcDbSymbolTable
 70
     5
  0
LAYER
  5
10
330
2
100
AcDbSymbolTableRecord
100
AcDbLayerTableRecord
  2
0
 70
     0
 62
     7
  6
Continuous
370
    -3
390
F
  0
LAYER
  5
9D
330
2
100
AcDbSymbolTableRecord
100
AcDbLayerTableRecord
  2
\M+5D6D0\M+5D0C4\M+5CFDF
 70
     0
 62
   230
  6
CENTERX2
370
    -3
390
F
1001
AcAecLayerStandard
1000

1000

  0
LAYER
  5
9E
330
2
100
AcDbSymbolTableRecord
100
AcDbLayerTableRecord
  2
\M+5B1EA\M+5D7A2
 70
     0
 62
    80
  6
Continuous
370
    -3
390
F
1001
AcAecLayerStandard
1000

1000

  0
LAYER
  5
9F
330
2
100
AcDbSymbolTableRecord
100
AcDbLayerTableRecord
  2
Defpoints
 70
     0
 62
     7
  6
Continuous
290
     0
370
    -3
390
F
  0
LAYER
  5
A0
330
2
100
AcDbSymbolTableRecord
100
AcDbLayerTableRecord
  2
\M+5D0E9\M+5CFDF
 70
     0
 62
   130
  6
HIDDENX2
370
    35
390
F
1001
AcAecLayerStandard
1000

1000

  0
ENDTAB
  0
TABLE
  2
STYLE
  5
3
330
0
100
AcDbSymbolTable
 70
     1
  0
STYLE
  5
11
330
3
100
AcDbSymbolTableRecord
100
AcDbTextStyleTableRecord
  2
Standard
 70
     0
 40
0.0
 41
1.0
 50
0.0
 71
     0
 42
0.2
  3
txt
  4

  0
ENDTAB
  0
TABLE
  2
VIEW
  5
6
330
0
100
AcDbSymbolTable
 70
     0
  0
ENDTAB
  0
TABLE
  2
UCS
  5
7
330
0
100
AcDbSymbolTable
 70
     0
  0
ENDTAB
  0
TABLE
  2
APPID
  5
9
330
0
100
AcDbSymbolTable
 70
     8
  0
APPID
  5
12
330
9
100
AcDbSymbolTableRecord
100
AcDbRegAppTableRecord
  2
ACAD
 70
     0
  0
APPID
  5
A3
330
9
100
AcDbSymbolTableRecord
100
AcDbRegAppTableRecord
  2
ACAD_PSEXT
 70
     0
  0
APPID
  5
A4
330
9
100
AcDbSymbolTableRecord
100
AcDbRegAppTableRecord
  2
AcAecLayerStandard
 70
     0
  0
APPID
  5
A5
330
9
100
AcDbSymbolTableRecord
100
AcDbRegAppTableRecord
  2
ACAD_DSTYLE_DIMEXT_LENGTH
 70
     0
  0
APPID
  5
A6
330
9
100
AcDbSymbolTableRecord
100
AcDbRegAppTableRecord
  2
ACAD_DSTYLE_DIMEXT_ENABLED
 70
     0
  0
APPID
  5
A7
330
9
100
AcDbSymbolTableRecord
100
AcDbRegAppTableRecord
  2
ACAD_DSTYLE_DIMJOGGED_JOGANGLE_SYMBOL
 70
     0
  0
APPID
  5
A8
330
9
100
AcDbSymbolTableRecord
100
AcDbRegAppTableRecord
  2
ACAD_DSTYLE_DIMARC_LENGTH_SYMBOL
 70
     0
  0
APPID
  5
2FD
330
9
100
AcDbSymbolTableRecord
100
AcDbRegAppTableRecord
  2
DCO15
 70
     0
  0
ENDTAB
  0
TABLE
  2
DIMSTYLE
  5
A
330
0
100
AcDbSymbolTable
 70
     3
100
AcDbDimStyleTable
 71
     3
340
29
340
A1
340
A2
  0
DIMSTYLE
105
29
102
{ACAD_REACTORS
330
629
330
647
102
}
330
A
100
AcDbSymbolTableRecord
100
AcDbDimStyleTableRecord
  2
Standard
 70
     0
 41
0.4
 73
     0
140
0.5
340
11
  0
DIMSTYLE
105
A1
330
A
100
AcDbSymbolTableRecord
100
AcDbDimStyleTableRecord
  2
ISO-25
 70
     0
 41
10.0
 42
5.0
 43
3.75
 44
3.0
 73
     0
 74
     0
 77
     1
 78
     8
140
24.0
141
7.0
143
0.03937007874016
147
5.0
171
     3
172
     1
271
     2
272
     2
274
     3
278
    44
283
     0
284
     8
340
11
1001
ACAD_DSTYLE_DIMEXT_LENGTH
1070
   378
1040
1.25
1001
ACAD_DSTYLE_DIMEXT_ENABLED
1070
   383
1070
     0
1001
ACAD_DSTYLE_DIMARC_LENGTH_SYMBOL
1070
   379
1070
     0
1001
ACAD_DSTYLE_DIMJOGGED_JOGANGLE_SYMBOL
1070
   384
1040
1.570796326794896
  0
DIMSTYLE
105
A2
330
A
100
AcDbSymbolTableRecord
100
AcDbDimStyleTableRecord
  2
mav
 70
     0
 41
12.0
 42
7.0
 43
3.75
 44
1.25
 73
     0
 74
     0
 77
     1
 78
     8
140
15.0
141
2.5
143
0.03937007874016
147
5.0
171
     3
172
     1
271
     2
272
     2
274
     3
278
    44
283
     0
284
     8
340
11
1001
ACAD_DSTYLE_DIMEXT_LENGTH
1070
   378
1040
1.25
1001
ACAD_DSTYLE_DIMEXT_ENABLED
1070
   383
1070
     0
1001
ACAD_DSTYLE_DIMARC_LENGTH_SYMBOL
1070
   379
1070
     0
1001
ACAD_DSTYLE_DIMJOGGED_JOGANGLE_SYMBOL
1070
   384
1040
1.570796326794896
  0
ENDTAB
  0
TABLE
  2
BLOCK_RECORD
  5
1
330
0
100
AcDbSymbolTable
 70
    26
  0
BLOCK_RECORD
  5
21
330
1
100
AcDbSymbolTableRecord
100
AcDbBlockTableRecord
  2
*Model_Space
340
24
  0
BLOCK_RECORD
  5
1D
330
1
100
AcDbSymbolTableRecord
100
AcDbBlockTableRecord
  2
*Paper_Space
340
20
  0
BLOCK_RECORD
  5
25
330
1
100
AcDbSymbolTableRecord
100
AcDbBlockTableRecord
  2
*Paper_Space0
340
28
  0
BLOCK_RECORD
  5
35F
330
1
100
AcDbSymbolTableRecord
100
AcDbBlockTableRecord
  2
*U10
340
0
102
{BLKREFS
331
36C
102
}
  0
BLOCK_RECORD
  5
4E4
330
1
100
AcDbSymbolTableRecord
100
AcDbBlockTableRecord
  2
*D13
340
0
  0
BLOCK_RECORD
  5
512
330
1
100
AcDbSymbolTableRecord
100
AcDbBlockTableRecord
  2
*D14
340
0
  0
BLOCK_RECORD
  5
54B
330
1
100
AcDbSymbolTableRecord
100
AcDbBlockTableRecord
  2
*D15
340
0
  0
BLOCK_RECORD
  5
565
330
1
100
AcDbSymbolTableRecord
100
AcDbBlockTableRecord
  2
*D16
340
0
  0
BLOCK_RECORD
  5
5A7
330
1
100
AcDbSymbolTableRecord
100
AcDbBlockTableRecord
  2
*D17
340
0
  0
BLOCK_RECORD
  5
5B9
330
1
100
AcDbSymbolTableRecord
100
AcDbBlockTableRecord
  2
*D18
340
0
  0
BLOCK_RECORD
  5
5D8
330
1
100
AcDbSymbolTableRecord
100
AcDbBlockTableRecord
  2
*D19
340
0
  0
BLOCK_RECORD
  5
5E3
330
1
100
AcDbSymbolTableRecord
100
AcDbBlockTableRecord
  2
*D20
340
0
  0
BLOCK_RECORD
  5
602
330
1
100
AcDbSymbolTableRecord
100
AcDbBlockTableRecord
  2
*D22
340
0
  0
BLOCK_RECORD
  5
60D
330
1
100
AcDbSymbolTableRecord
100
AcDbBlockTableRecord
  2
*D23
340
0
  0
BLOCK_RECORD
  5
62A
330
1
100
AcDbSymbolTableRecord
100
AcDbBlockTableRecord
  2
*D24
340
0
  0
BLOCK_RECORD
  5
648
330
1
100
AcDbSymbolTableRecord
100
AcDbBlockTableRecord
  2
*D25
340
0
  0
ENDTAB
  0
ENDSEC
  0
SECTION
  2
BLOCKS
  0
BLOCK
  5
22
330
21
100
AcDbEntity
  8
0
100
AcDbBlockBegin
  2
*Model_Space
 70
     0
 10
0.0
 20
0.0
 30
0.0
  3
*Model_Space
  1

  0
ENDBLK
  5
23
330
21
100
AcDbEntity
  8
0
100
AcDbBlockEnd
  0
BLOCK
  5
1E
330
1D
100
AcDbEntity
 67
     1
  8
0
100
AcDbBlockBegin
  2
*Paper_Space
 70
     0
 10
0.0
 20
0.0
 30
0.0
  3
*Paper_Space
  1

  0
ENDBLK
  5
1F
330
1D
100
AcDbEntity
 67
     1
  8
0
100
AcDbBlockEnd
  0
BLOCK
  5
26
330
25
100
AcDbEntity
  8
0
100
AcDbBlockBegin
  2
*Paper_Space0
 70
     0
 10
0.0
 20
0.0
 30
0.0
  3
*Paper_Space0
  1

  0
ENDBLK
  5
27
330
25
100
AcDbEntity
  8
0
100
AcDbBlockEnd
  0
BLOCK
  5
363
330
35F
100
AcDbEntity
  8
0
100
AcDbBlockBegin
  2
*U10
 70
     1
 10
0.0
 20
0.0
 30
0.0
  3
*U10
  1

  0
TEXT
  5
360
330
35F
100
AcDbEntity
  8
0
100
AcDbText
 10
1.9327459004445
 20
-2.486795878345354
 30
0.0
 40
0.5
  1
NOTE: CHECK ALL DXF FILES BEFORE USING.
100
AcDbText
  0
TEXT
  5
361
330
35F
100
AcDbEntity
  8
0
100
AcDbText
 10
1.9327459004445
 20
-3.320129211678687
 30
0.0
 40
0.5
  1
DOMAIN INDUSTRIES DOES NOT WARRANT AND
100
AcDbText
  0
TEXT
  5
362
330
35F
100
AcDbEntity
  8
0
100
AcDbText
 10
1.9327459004445
 20
-4.153462545012019
 30
0.0
 40
0.5
  1
IS NOT LIABLE FOR ACCURACY OF DRAWING.
100
AcDbText
  0
ENDBLK
  5
364
330
35F
100
AcDbEntity
  8
0
100
AcDbBlockEnd
  0
BLOCK
  5
4EF
330
4E4
100
AcDbEntity
  8
0
100
AcDbBlockBegin
  2
*D13
 70
     1
 10
0.0
 20
0.0
 30
0.0
  3
*D13
  1

  0
LINE
  5
535
330
4E4
100
AcDbEntity
  8
0
 62
     0
370
    -2
100
AcDbLine
 10
332.081404977956
 20
352.9276204460209
 30
0.0
 11
341.085905774333
 21
352.9276204460209
 31
0.0
  0
LINE
  5
536
330
4E4
100
AcDbEntity
  8
0
 62
     0
370
    -2
100
AcDbLine
 10
332.081404977956
 20
335.9985204460209
 30
0.0
 11
341.085905774333
 21
335.9985204460209
 31
0.0
  0
LINE
  5
537
330
4E4
100
AcDbEntity
  8
0
 62
     0
370
    -2
100
AcDbLine
 10
340.905905774333
 20
352.5276204460209
 30
0.0
 11
340.905905774333
 21
345.8864037793542
 31
0.0
  0
LINE
  5
538
330
4E4
100
AcDbEntity
  8
0
 62
     0
370
    -2
100
AcDbLine
 10
340.905905774333
 20
336.3985204460209
 30
0.0
 11
340.905905774333
 21
343.0397371126876
 31
0.0
  0
SOLID
  5
539
330
4E4
100
AcDbEntity
  8
0
 62
     0
100
AcDbTrace
 10
340.8392391076663
 20
352.5276204460209
 30
0.0
 11
340.9725724409996
 21
352.5276204460209
 31
0.0
 12
340.905905774333
 22
352.9276204460209
 32
0.0
 13
340.905905774333
 23
352.9276204460209
 33
0.0
  0
SOLID
  5
53A
330
4E4
100
AcDbEntity
  8
0
 62
     0
100
AcDbTrace
 10
340.8392391076663
 20
336.3985204460209
 30
0.0
 11
340.9725724409996
 21
336.3985204460209
 31
0.0
 12
340.905905774333
 22
335.9985204460209
 32
0.0
 13
340.905905774333
 23
335.9985204460209
 33
0.0
  0
MTEXT
  5
53B
330
4E4
100
AcDbEntity
  8
0
 62
     0
100
AcDbMText
 10
340.9059057743329
 20
344.4630704460209
 30
0.0
 40
0.5
 41
0.0
 71
     5
 72
     1
  1
\A1;16.9291
 11
0.0000000000000001
 21
1.0
 31
0.0
 73
     1
 44
1.0
  0
POINT
  5
53C
330
4E4
100
AcDbEntity
  8
Defpoints
 62
     0
100
AcDbPoint
 10
332.018904977956
 20
352.9276204460209
 30
0.0
  0
POINT
  5
53D
330
4E4
100
AcDbEntity
  8
Defpoints
 62
     0
100
AcDbPoint
 10
332.018904977956
 20
335.9985204460209
 30
0.0
  0
POINT
  5
53E
330
4E4
100
AcDbEntity
  8
Defpoints
 62
     0
100
AcDbPoint
 10
340.905905774333
 20
335.9985204460209
 30
0.0
  0
ENDBLK
  5
4F0
330
4E4
100
AcDbEntity
  8
0
100
AcDbBlockEnd
  0
BLOCK
  5
51D
330
512
100
AcDbEntity
  8
0
100
AcDbBlockBegin
  2
*D14
 70
     1
 10
0.0
 20
0.0
 30
0.0
  3
*D14
  1

  0
LINE
  5
53F
330
512
100
AcDbEntity
  8
0
 62
     0
370
    -2
100
AcDbLine
 10
332.081404977956
 20
352.6520304460209
 30
0.0
 11
338.5076487626209
 21
352.6520304460209
 31
0.0
  0
LINE
  5
540
330
512
100
AcDbEntity
  8
0
 62
     0
370
    -2
100
AcDbLine
 10
332.081404977956
 20
336.274110446021
 30
0.0
 11
338.5076487626209
 21
336.274110446021
 31
0.0
  0
LINE
  5
541
330
512
100
AcDbEntity
  8
0
 62
     0
370
    -2
100
AcDbLine
 10
338.327648762621
 20
352.2520304460209
 30
0.0
 11
338.327648762621
 21
345.9697371126876
 31
0.0
  0
LINE
  5
542
330
512
100
AcDbEntity
  8
0
 62
     0
370
    -2
100
AcDbLine
 10
338.327648762621
 20
336.6741104460209
 30
0.0
 11
338.327648762621
 21
342.9564037793543
 31
0.0
  0
SOLID
  5
543
330
512
100
AcDbEntity
  8
0
 62
     0
100
AcDbTrace
 10
338.2609820959543
 20
352.2520304460209
 30
0.0
 11
338.3943154292876
 21
352.2520304460209
 31
0.0
 12
338.327648762621
 22
352.6520304460209
 32
0.0
 13
338.327648762621
 23
352.6520304460209
 33
0.0
  0
SOLID
  5
544
330
512
100
AcDbEntity
  8
0
 62
     0
100
AcDbTrace
 10
338.2609820959543
 20
336.6741104460209
 30
0.0
 11
338.3943154292876
 21
336.6741104460209
 31
0.0
 12
338.327648762621
 22
336.274110446021
 32
0.0
 13
338.327648762621
 23
336.274110446021
 33
0.0
  0
MTEXT
  5
545
330
512
100
AcDbEntity
  8
0
 62
     0
100
AcDbMText
 10
338.3276487626209
 20
344.4630704460209
 30
0.0
 40
0.5
 41
0.0
 71
     5
 72
     1
  1
\A1;16.3779
 11
0.0000000000000001
 21
1.0
 31
0.0
 73
     1
 44
1.0
  0
POINT
  5
546
330
512
100
AcDbEntity
  8
Defpoints
 62
     0
100
AcDbPoint
 10
332.018904977956
 20
352.6520304460209
 30
0.0
  0
POINT
  5
547
330
512
100
AcDbEntity
  8
Defpoints
 62
     0
100
AcDbPoint
 10
332.018904977956
 20
336.274110446021
 30
0.0
  0
POINT
  5
548
330
512
100
AcDbEntity
  8
Defpoints
 62
     0
100
AcDbPoint
 10
338.327648762621
 20
336.274110446021
 30
0.0
  0
ENDBLK
  5
51E
330
512
100
AcDbEntity
  8
0
100
AcDbBlockEnd
  0
BLOCK
  5
556
330
54B
100
AcDbEntity
  8
0
100
AcDbBlockBegin
  2
*D15
 70
     1
 10
0.0
 20
0.0
 30
0.0
  3
*D15
  1

  0
LINE
  5
59C
330
54B
100
AcDbEntity
  8
0
 62
     0
370
    -2
100
AcDbLine
 10
313.5150049779563
 20
339.1643604460209
 30
0.0
 11
313.5150049779563
 21
333.7160547576902
 31
0.0
  0
LINE
  5
59D
330
54B
100
AcDbEntity
  8
0
 62
     0
370
    -2
100
AcDbLine
 10
334.9716549779564
 20
339.1643604460209
 30
0.0
 11
334.9716549779564
 21
333.7160547576902
 31
0.0
  0
LINE
  5
59E
330
54B
100
AcDbEntity
  8
0
 62
     0
370
    -2
100
AcDbLine
 10
313.9150049779563
 20
333.8960547576902
 30
0.0
 11
322.7366633112897
 21
333.8960547576902
 31
0.0
  0
LINE
  5
59F
330
54B
100
AcDbEntity
  8
0
 62
     0
370
    -2
100
AcDbLine
 10
334.5716549779564
 20
333.8960547576902
 30
0.0
 11
325.749996644623
 21
333.8960547576902
 31
0.0
  0
SOLID
  5
5A0
330
54B
100
AcDbEntity
  8
0
 62
     0
100
AcDbTrace
 10
313.9150049779563
 20
333.9627214243569
 30
0.0
 11
313.9150049779563
 21
333.8293880910236
 31
0.0
 12
313.5150049779563
 22
333.8960547576902
 32
0.0
 13
313.5150049779563
 23
333.8960547576902
 33
0.0
  0
SOLID
  5
5A1
330
54B
100
AcDbEntity
  8
0
 62
     0
100
AcDbTrace
 10
334.5716549779564
 20
333.9627214243569
 30
0.0
 11
334.5716549779564
 21
333.8293880910236
 31
0.0
 12
334.9716549779564
 22
333.8960547576902
 32
0.0
 13
334.9716549779564
 23
333.8960547576902
 33
0.0
  0
MTEXT
  5
5A2
330
54B
100
AcDbEntity
  8
0
 62
     0
100
AcDbMText
 10
324.2433299779564
 20
333.8960547576902
 30
0.0
 40
0.5
 41
0.0
 71
     5
 72
     1
  1
\A1;21.4567
 73
     1
 44
1.0
  0
POINT
  5
5A3
330
54B
100
AcDbEntity
  8
Defpoints
 62
     0
100
AcDbPoint
 10
313.5150049779563
 20
339.2268604460209
 30
0.0
  0
POINT
  5
5A4
330
54B
100
AcDbEntity
  8
Defpoints
 62
     0
100
AcDbPoint
 10
334.9716549779564
 20
339.2268604460209
 30
0.0
  0
POINT
  5
5A5
330
54B
100
AcDbEntity
  8
Defpoints
 62
     0
100
AcDbPoint
 10
334.9716549779564
 20
333.8960547576902
 30
0.0
  0
ENDBLK
  5
557
330
54B
100
AcDbEntity
  8
0
100
AcDbBlockEnd
  0
BLOCK
  5
570
330
565
100
AcDbEntity
  8
0
100
AcDbBlockBegin
  2
*D16
 70
     1
 10
0.0
 20
0.0
 30
0.0
  3
*D16
  1

  0
LINE
  5
592
330
565
100
AcDbEntity
  8
0
 62
     0
370
    -2
100
AcDbLine
 10
313.2394149779552
 20
339.1643604460209
 30
0.0
 11
313.2394149779552
 21
331.7753504061842
 31
0.0
  0
LINE
  5
593
330
565
100
AcDbEntity
  8
0
 62
     0
370
    -2
100
AcDbLine
 10
335.2472449779557
 20
339.1643604460209
 30
0.0
 11
335.2472449779557
 21
331.7753504061842
 31
0.0
  0
LINE
  5
594
330
565
100
AcDbEntity
  8
0
 62
     0
370
    -2
100
AcDbLine
 10
313.6394149779552
 20
331.9553504061842
 30
0.0
 11
322.7366633112888
 21
331.9553504061842
 31
0.0
  0
LINE
  5
595
330
565
100
AcDbEntity
  8
0
 62
     0
370
    -2
100
AcDbLine
 10
334.8472449779557
 20
331.9553504061842
 30
0.0
 11
325.7499966446221
 21
331.9553504061842
 31
0.0
  0
SOLID
  5
596
330
565
100
AcDbEntity
  8
0
 62
     0
100
AcDbTrace
 10
313.6394149779552
 20
332.0220170728509
 30
0.0
 11
313.6394149779552
 21
331.8886837395176
 31
0.0
 12
313.2394149779552
 22
331.9553504061842
 32
0.0
 13
313.2394149779552
 23
331.9553504061842
 33
0.0
  0
SOLID
  5
597
330
565
100
AcDbEntity
  8
0
 62
     0
100
AcDbTrace
 10
334.8472449779557
 20
332.0220170728509
 30
0.0
 11
334.8472449779557
 21
331.8886837395176
 31
0.0
 12
335.2472449779557
 22
331.9553504061842
 32
0.0
 13
335.2472449779557
 23
331.9553504061842
 33
0.0
  0
MTEXT
  5
598
330
565
100
AcDbEntity
  8
0
 62
     0
100
AcDbMText
 10
324.2433299779555
 20
331.9553504061842
 30
0.0
 40
0.5
 41
0.0
 71
     5
 72
     1
  1
\A1;22.0078
 73
     1
 44
1.0
  0
POINT
  5
599
330
565
100
AcDbEntity
  8
Defpoints
 62
     0
100
AcDbPoint
 10
313.2394149779552
 20
339.2268604460209
 30
0.0
  0
POINT
  5
59A
330
565
100
AcDbEntity
  8
Defpoints
 62
     0
100
AcDbPoint
 10
335.2472449779557
 20
339.2268604460209
 30
0.0
  0
POINT
  5
59B
330
565
100
AcDbEntity
  8
Defpoints
 62
     0
100
AcDbPoint
 10
335.2472449779557
 20
331.9553504061842
 30
0.0
  0
ENDBLK
  5
571
330
565
100
AcDbEntity
  8
0
100
AcDbBlockEnd
  0
BLOCK
  5
5AE
330
5A7
100
AcDbEntity
  8
0
100
AcDbBlockBegin
  2
*D17
 70
     1
 10
0.0
 20
0.0
 30
0.0
  3
*D17
  1

  0
LINE
  5
5C8
330
5A7
100
AcDbEntity
  8
0
 62
     0
370
    -2
100
AcDbLine
 10
317.1633801214602
 20
339.6843865585488
 30
0.0
 11
316.7633801214601
 21
339.6843865585488
 31
0.0
  0
LINE
  5
5C9
330
5A7
100
AcDbEntity
  8
0
 62
     0
370
    -2
100
AcDbLine
 10
316.7633801214601
 20
339.6843865585488
 30
0.0
 11
315.0823617953018
 21
337.0827479741673
 31
0.0
  0
MTEXT
  5
5CA
330
5A7
100
AcDbEntity
  8
0
 62
     0
100
AcDbMText
 10
318.7533801214601
 20
339.6843865585489
 30
0.0
 40
0.5
 41
0.0
 71
     5
 72
     1
  1
\A1;R2.9528
 73
     1
 44
1.0
  0
SOLID
  5
5CB
330
5A7
100
AcDbEntity
  8
0
 62
     0
100
AcDbTrace
 10
315.0263669538733
 20
337.1189283856883
 30
0.0
 11
315.1383566367305
 21
337.0465675626463
 31
0.0
 12
314.8652793261759
 22
336.7467789255956
 32
0.0
 13
314.8652793261759
 23
336.7467789255956
 33
0.0
  0
POINT
  5
5CC
330
5A7
100
AcDbEntity
  8
Defpoints
 62
     0
100
AcDbPoint
 10
314.8652793261759
 20
336.7467789255956
 30
0.0
  0
POINT
  5
5CD
330
5A7
100
AcDbEntity
  8
Defpoints
 62
     0
100
AcDbPoint
 10
316.4677549779556
 20
339.2268604460214
 30
0.0
  0
ENDBLK
  5
5AF
330
5A7
100
AcDbEntity
  8
0
100
AcDbBlockEnd
  0
BLOCK
  5
5BF
330
5B9
100
AcDbEntity
  8
0
100
AcDbBlockBegin
  2
*D18
 70
     1
 10
0.0
 20
0.0
 30
0.0
  3
*D18
  1

  0
LINE
  5
5CE
330
5B9
100
AcDbEntity
  8
0
 62
     0
370
    -2
100
AcDbLine
 10
315.2611557762446
 20
351.2729142119283
 30
0.0
 11
314.746771974233
 21
351.9437680616027
 31
0.0
  0
MTEXT
  5
5CF
330
5B9
100
AcDbEntity
  8
0
 62
     0
100
AcDbMText
 10
316.2286359858085
 20
350.011136876539
 30
0.0
 40
0.5
 41
0.0
 71
     5
 72
     1
  1
\A1;R3.2283
 11
0.6084781192225485
 21
-0.7935706511882799
 31
0.0
 73
     1
 44
1.0
  0
SOLID
  5
5D0
330
5B9
100
AcDbEntity
  8
0
 62
     0
100
AcDbTrace
 10
314.7996766843121
 20
351.9843332695509
 30
0.0
 11
314.6938672641537
 21
351.9032028536546
 31
0.0
 12
314.503380726544
 22
352.261196322078
 32
0.0
 13
314.503380726544
 23
352.261196322078
 33
0.0
  0
POINT
  5
5D1
330
5B9
100
AcDbEntity
  8
Defpoints
 62
     0
100
AcDbPoint
 10
314.503380726544
 20
352.261196322078
 30
0.0
  0
POINT
  5
5D2
330
5B9
100
AcDbEntity
  8
Defpoints
 62
     0
100
AcDbPoint
 10
316.4677549779548
 20
349.699280446021
 30
0.0
  0
ENDBLK
  5
5C0
330
5B9
100
AcDbEntity
  8
0
100
AcDbBlockEnd
  0
BLOCK
  5
5E1
330
5D8
100
AcDbEntity
  8
0
100
AcDbBlockBegin
  2
*D19
 70
     1
 10
0.0
 20
0.0
 30
0.0
  3
*D19
  1

  0
LINE
  5
5D9
330
5D8
100
AcDbEntity
  8
0
 62
     0
370
    -2
100
AcDbLine
 10
237.8520824563086
 20
258.6346399449055
 30
0.0
 11
237.5103729387963
 21
258.2696267867296
 31
0.0
  0
LINE
  5
5DA
330
5D8
100
AcDbEntity
  8
0
 62
     0
370
    -2
100
AcDbLine
 10
226.2528143920703
 20
246.2443339929915
 30
0.0
 11
225.9111048745582
 21
245.8793208348156
 31
0.0
  0
MTEXT
  5
5DB
330
5D8
100
AcDbEntity
  8
0
 62
     0
100
AcDbMText
 10
239.0526218945014
 20
259.9170528406304
 30
0.0
 40
0.5
 41
0.0
 71
     5
 72
     1
  1
\A1;\U+220515.4724
 11
0.6834190350243908
 21
0.7300263163519043
 31
0.0
 73
     1
 44
1.0
  0
LINE
  5
5DC
330
5D8
100
AcDbEntity
  8
0
 62
     0
370
    -2
100
AcDbLine
 10
226.5945239095826
 20
246.6093471511674
 30
0.0
 11
237.1686634212842
 21
257.9046136285537
 31
0.0
  0
SOLID
  5
5DD
330
5D8
100
AcDbEntity
  8
0
 62
     0
100
AcDbTrace
 10
226.1919788657077
 20
246.3012855792436
 30
0.0
 11
226.313649918433
 21
246.1873824067395
 31
0.0
 12
226.5945239095826
 22
246.6093471511674
 32
0.0
 13
226.5945239095826
 23
246.6093471511674
 33
0.0
  0
SOLID
  5
5DE
330
5D8
100
AcDbEntity
  8
0
 62
     0
100
AcDbTrace
 10
237.4495374124337
 20
258.3265783729817
 30
0.0
 11
237.571208465159
 21
258.2126752004776
 31
0.0
 12
237.1686634212842
 22
257.9046136285537
 32
0.0
 13
237.1686634212842
 23
257.9046136285537
 33
0.0
  0
POINT
  5
5DF
330
5D8
100
AcDbEntity
  8
Defpoints
 62
     0
100
AcDbPoint
 10
237.1686634212842
 20
257.9046136285537
 30
0.0
  0
POINT
  5
5E0
330
5D8
100
AcDbEntity
  8
Defpoints
 62
     0
100
AcDbPoint
 10
226.5945239095826
 20
246.6093471511674
 30
0.0
  0
ENDBLK
  5
5E2
330
5D8
100
AcDbEntity
  8
0
100
AcDbBlockEnd
  0
BLOCK
  5
5EC
330
5E3
100
AcDbEntity
  8
0
100
AcDbBlockBegin
  2
*D20
 70
     1
 10
0.0
 20
0.0
 30
0.0
  3
*D20
  1

  0
LINE
  5
5E4
330
5E3
100
AcDbEntity
  8
0
 62
     0
370
    -2
100
AcDbLine
 10
224.5092798925772
 20
258.400054133452
 30
0.0
 11
225.342424322234
 21
257.7058259944805
 31
0.0
  0
LINE
  5
5E5
330
5E3
100
AcDbEntity
  8
0
 62
     0
370
    -2
100
AcDbLine
 10
238.4207630086329
 20
246.8081347852406
 30
0.0
 11
238.8048870002938
 21
246.4880586083226
 31
0.0
  0
MTEXT
  5
5E6
330
5E3
100
AcDbEntity
  8
0
 62
     0
100
AcDbMText
 10
223.1917346011802
 20
259.4979154202808
 30
0.0
 40
0.5
 41
0.0
 71
     5
 72
     1
  1
\A1;\U+220516.0236
 11
0.7682479833219002
 21
-0.6401523538360485
 31
0.0
 73
     1
 44
1.0
  0
LINE
  5
5E7
330
5E3
100
AcDbEntity
  8
0
 62
     0
370
    -2
100
AcDbLine
 10
238.0366390169719
 20
247.1282109621586
 30
0.0
 11
225.7265483138949
 21
257.3857498175625
 31
0.0
  0
SOLID
  5
5E8
330
5E3
100
AcDbEntity
  8
0
 62
     0
100
AcDbTrace
 10
238.4741090381192
 20
246.8721554505174
 30
0.0
 11
238.3674169791465
 21
246.7441141199638
 31
0.0
 12
238.0366390169719
 22
247.1282109621586
 32
0.0
 13
238.0366390169719
 23
247.1282109621586
 33
0.0
  0
SOLID
  5
5E9
330
5E3
100
AcDbEntity
  8
0
 62
     0
100
AcDbTrace
 10
225.3957703517203
 20
257.7698466597572
 30
0.0
 11
225.2890782927476
 21
257.6418053292036
 31
0.0
 12
225.7265483138949
 22
257.3857498175625
 32
0.0
 13
225.7265483138949
 23
257.3857498175625
 33
0.0
  0
POINT
  5
5EA
330
5E3
100
AcDbEntity
  8
Defpoints
 62
     0
100
AcDbPoint
 10
225.7265483138949
 20
257.3857498175625
 30
0.0
  0
POINT
  5
5EB
330
5E3
100
AcDbEntity
  8
Defpoints
 62
     0
100
AcDbPoint
 10
238.0366390169719
 20
247.1282109621586
 30
0.0
  0
ENDBLK
  5
5ED
330
5E3
100
AcDbEntity
  8
0
100
AcDbBlockEnd
  0
BLOCK
  5
60B
330
602
100
AcDbEntity
  8
0
100
AcDbBlockBegin
  2
*D22
 70
     1
 10
0.0
 20
0.0
 30
0.0
  3
*D22
  1

  0
LINE
  5
620
330
602
100
AcDbEntity
  8
0
 62
     0
370
    -2
100
AcDbLine
 10
354.3193304100468
 20
349.6115327390222
 30
0.0
 11
355.1524748397036
 21
348.9173046000507
 31
0.0
  0
LINE
  5
621
330
602
100
AcDbEntity
  8
0
 62
     0
370
    -2
100
AcDbLine
 10
368.2308135261024
 20
338.0196133908108
 30
0.0
 11
368.6149375177634
 21
337.6995372138928
 31
0.0
  0
MTEXT
  5
622
330
602
100
AcDbEntity
  8
0
 62
     0
100
AcDbMText
 10
353.0017851186498
 20
350.709394025851
 30
0.0
 40
0.5
 41
0.0
 71
     5
 72
     1
  1
\A1;\U+220516.0236
 11
0.7682479833219002
 21
-0.6401523538360485
 31
0.0
 73
     1
 44
1.0
  0
LINE
  5
623
330
602
100
AcDbEntity
  8
0
 62
     0
370
    -2
100
AcDbLine
 10
367.8466895344415
 20
338.3396895677288
 30
0.0
 11
355.5365988313645
 21
348.5972284231327
 31
0.0
  0
SOLID
  5
624
330
602
100
AcDbEntity
  8
0
 62
     0
100
AcDbTrace
 10
368.2841595555888
 20
338.0836340560876
 30
0.0
 11
368.1774674966161
 21
337.955592725534
 31
0.0
 12
367.8466895344415
 22
338.3396895677288
 32
0.0
 13
367.8466895344415
 23
338.3396895677288
 33
0.0
  0
SOLID
  5
625
330
602
100
AcDbEntity
  8
0
 62
     0
100
AcDbTrace
 10
355.2058208691899
 20
348.9813252653275
 30
0.0
 11
355.0991288102173
 21
348.8532839347739
 31
0.0
 12
355.5365988313645
 22
348.5972284231327
 32
0.0
 13
355.5365988313645
 23
348.5972284231327
 33
0.0
  0
POINT
  5
626
330
602
100
AcDbEntity
  8
Defpoints
 62
     0
100
AcDbPoint
 10
355.5365988313645
 20
348.5972284231327
 30
0.0
  0
POINT
  5
627
330
602
100
AcDbEntity
  8
Defpoints
 62
     0
100
AcDbPoint
 10
367.8466895344415
 20
338.3396895677288
 30
0.0
  0
ENDBLK
  5
60C
330
602
100
AcDbEntity
  8
0
100
AcDbBlockEnd
  0
BLOCK
  5
616
330
60D
100
AcDbEntity
  8
0
100
AcDbBlockBegin
  2
*D23
 70
     1
 10
0.0
 20
0.0
 30
0.0
  3
*D23
  1

  0
LINE
  5
618
330
60D
100
AcDbEntity
  8
0
 62
     0
370
    -2
100
AcDbLine
 10
367.6621329737782
 20
349.8461185504758
 30
0.0
 11
367.320423456266
 21
349.4811053922999
 31
0.0
  0
LINE
  5
619
330
60D
100
AcDbEntity
  8
0
 62
     0
370
    -2
100
AcDbLine
 10
356.06286490954
 20
337.4558125985616
 30
0.0
 11
355.7211553920278
 21
337.0907994403858
 31
0.0
  0
MTEXT
  5
61A
330
60D
100
AcDbEntity
  8
0
 62
     0
100
AcDbMText
 10
368.8626724119711
 20
351.1285314462007
 30
0.0
 40
0.5
 41
0.0
 71
     5
 72
     1
  1
\A1;\U+220515.4724
 11
0.683419035024393
 21
0.7300263163519022
 31
0.0
 73
     1
 44
1.0
  0
LINE
  5
61B
330
60D
100
AcDbEntity
  8
0
 62
     0
370
    -2
100
AcDbLine
 10
356.4045744270523
 20
337.8208257567377
 30
0.0
 11
366.9787139387538
 21
349.1160922341239
 31
0.0
  0
SOLID
  5
61C
330
60D
100
AcDbEntity
  8
0
 62
     0
100
AcDbTrace
 10
356.0020293831773
 20
337.5127641848137
 30
0.0
 11
356.1237004359027
 21
337.3988610123096
 31
0.0
 12
356.4045744270523
 22
337.8208257567377
 32
0.0
 13
356.4045744270523
 23
337.8208257567377
 33
0.0
  0
SOLID
  5
61D
330
60D
100
AcDbEntity
  8
0
 62
     0
100
AcDbTrace
 10
367.2595879299034
 20
349.5380569785519
 30
0.0
 11
367.3812589826287
 21
349.4241538060478
 31
0.0
 12
366.9787139387538
 22
349.1160922341239
 32
0.0
 13
366.9787139387538
 23
349.1160922341239
 33
0.0
  0
POINT
  5
61E
330
60D
100
AcDbEntity
  8
Defpoints
 62
     0
100
AcDbPoint
 10
366.9787139387538
 20
349.1160922341239
 30
0.0
  0
POINT
  5
61F
330
60D
100
AcDbEntity
  8
Defpoints
 62
     0
100
AcDbPoint
 10
356.4045744270523
 20
337.8208257567377
 30
0.0
  0
ENDBLK
  5
617
330
60D
100
AcDbEntity
  8
0
100
AcDbBlockEnd
  0
BLOCK
  5
633
330
62A
100
AcDbEntity
  8
0
100
AcDbBlockBegin
  2
*D24
 70
     1
 10
0.0
 20
0.0
 30
0.0
  3
*D24
  1

  0
LINE
  5
63F
330
62A
100
AcDbEntity
  8
0
 62
     0
370
    -2
100
AcDbLine
 10
354.064310002585
 20
351.9844985113675
 30
0.0
 11
354.4643100025853
 21
351.9844985113675
 31
0.0
  0
LINE
  5
640
330
62A
100
AcDbEntity
  8
0
 62
     0
370
    -2
100
AcDbLine
 10
354.4643100025853
 20
351.9844985113675
 30
0.0
 11
356.0381855387151
 21
350.2504806714251
 31
0.0
  0
MTEXT
  5
641
330
62A
100
AcDbEntity
  8
0
 62
     0
100
AcDbMText
 10
352.3493100025851
 20
351.9844985113675
 30
0.0
 40
0.5
 41
0.0
 71
     5
 72
     1
  1
\A1;\U+220516.0236
 73
     1
 44
1.0
  0
SOLID
  5
642
330
62A
100
AcDbEntity
  8
0
 62
     0
100
AcDbTrace
 10
356.0875503472359
 20
350.2952864760061
 30
0.0
 11
355.9888207301943
 21
350.2056748668441
 31
0.0
 12
356.3070203662014
 22
349.9542918203006
 32
0.0
 13
356.3070203662014
 23
349.9542918203006
 33
0.0
  0
LINE
  5
643
330
62A
100
AcDbEntity
  8
0
 62
     0
370
    -2
100
AcDbLine
 10
361.6016441829031
 20
344.0217809290646
 30
0.0
 11
361.781644182903
 21
344.0217809290645
 31
0.0
  0
LINE
  5
644
330
62A
100
AcDbEntity
  8
0
 62
     0
370
    -2
100
AcDbLine
 10
361.691644182903
 20
343.9317809290646
 30
0.0
 11
361.691644182903
 21
344.1117809290645
 31
0.0
  0
POINT
  5
645
330
62A
100
AcDbEntity
  8
Defpoints
 62
     0
100
AcDbPoint
 10
356.3070203662014
 20
349.9542918203006
 30
0.0
  0
POINT
  5
646
330
62A
100
AcDbEntity
  8
Defpoints
 62
     0
100
AcDbPoint
 10
367.0762679996047
 20
338.0892700378285
 30
0.0
  0
ENDBLK
  5
634
330
62A
100
AcDbEntity
  8
0
100
AcDbBlockEnd
  0
BLOCK
  5
64E
330
648
100
AcDbEntity
  8
0
100
AcDbBlockBegin
  2
*D25
 70
     1
 10
0.0
 20
0.0
 30
0.0
  3
*D25
  1

  0
LINE
  5
65C
330
648
100
AcDbEntity
  8
0
 62
     0
370
    -2
100
AcDbLine
 10
358.8601112927813
 20
338.5248143400237
 30
0.0
 11
358.3322037048795
 21
337.4999664977396
 31
0.0
  0
MTEXT
  5
65D
330
648
100
AcDbEntity
  8
0
 62
     0
100
AcDbMText
 10
359.6645349841033
 20
340.0864738107847
 30
0.0
 40
0.5
 41
0.0
 71
     5
 72
     1
  1
\A1;\U+220515.4724
 11
0.4579261999935499
 21
0.8889902110594173
 31
0.0
 73
     1
 44
1.0
  0
SOLID
  5
65E
330
648
100
AcDbEntity
  8
0
 62
     0
100
AcDbTrace
 10
358.2729376908088
 20
337.5304949110725
 30
0.0
 11
358.3914697189501
 21
337.4694380844067
 31
0.0
 12
358.149033224882
 22
337.1443704133159
 32
0.0
 13
358.149033224882
 23
337.1443704133159
 33
0.0
  0
POINT
  5
65F
330
648
100
AcDbEntity
  8
Defpoints
 62
     0
100
AcDbPoint
 10
358.149033224882
 20
337.1443704133159
 30
0.0
  0
POINT
  5
660
330
648
100
AcDbEntity
  8
Defpoints
 62
     0
100
AcDbPoint
 10
365.2342551409242
 20
350.8991914448137
 30
0.0
  0
ENDBLK
  5
64F
330
648
100
AcDbEntity
  8
0
100
AcDbBlockEnd
  0
ENDSEC
  0
SECTION
  2
ENTITIES
  0
TEXT
  5
35E
330
21
100
AcDbEntity
  8
0
100
AcDbText
 10
358.9624405008076
 20
344.7034075798202
 30
0.0
 40
1.0
  1
OM-17R
100
AcDbText
  0
TEXT
  5
36B
330
21
100
AcDbEntity
  8
0
 62
     5
100
AcDbText
 10
352.4971838029712
 20
328.8358326432568
 30
0.0
 40
0.5
  1
(C)2009 DOMAIN INDUSTRIES, INC.
100
AcDbText
  0
INSERT
  5
36C
330
21
100
AcDbEntity
  8
0
100
AcDbBlockReference
  2
*U10
 10
350.6350619244343
 20
334.4570035821452
 30
0.0
  0
CIRCLE
  5
600
102
{ACAD_REACTORS
330
63E
102
}
330
21
100
AcDbEntity
  8
0
370
    50
100
AcDbCircle
 10
361.691644182903
 20
344.0217809290647
 30
0.0
 40
8.011795000000001
  0
CIRCLE
  5
601
102
{ACAD_REACTORS
330
656
102
}
330
21
100
AcDbEntity
  8
\M+5D0E9\M+5CFDF
 48
0.05
370
    50
100
AcDbCircle
 10
361.691644182903
 20
344.0217809290647
 30
0.0
 40
7.736204999999999
  0
DIMENSION
  5
629
102
{ACAD_XDICTIONARY
360
635
102
}
102
{ACAD_REACTORS
330
63E
102
}
330
21
100
AcDbEntity
  8
0
 62
     3
100
AcDbDimension
  2
*D24
 10
367.0762679996047
 20
338.0892700378285
 30
0.0
 11
352.3493100025851
 21
351.9844985113675
 31
0.0
 70
   163
 71
     5
 42
16.02359000000006
  3
Standard
100
AcDbDiametricDimension
 15
356.3070203662014
 25
349.9542918203006
 35
0.0
 40
0.0
1001
ACAD
1000
DSTYLE
1002
{
1070
   288
1070
     1
1002
}
  0
DIMENSION
  5
647
102
{ACAD_XDICTIONARY
360
650
102
}
102
{ACAD_REACTORS
330
656
102
}
330
21
100
AcDbEntity
  8
0
 62
     3
100
AcDbDimension
  2
*D25
 10
365.2342551409242
 20
350.8991914448137
 30
0.0
 11
359.6645349841033
 21
340.0864738107847
 31
0.0
 70
   163
 71
     5
 42
15.47240999999996
  3
Standard
100
AcDbDiametricDimension
 15
358.149033224882
 25
337.1443704133159
 35
0.0
 40
0.0
1001
ACAD
1000
DSTYLE
1002
{
1070
   288
1070
     1
1002
}
  0
ENDSEC
  0
SECTION
  2
OBJECTS
  0
DICTIONARY
  5
C
330
0
100
AcDbDictionary
281
     1
  3
ACAD_COLOR
350
1C
  3
ACAD_GROUP
350
D
  3
ACAD_LAYOUT
350
1A
  3
ACAD_MATERIAL
350
1B
  3
ACAD_MLINESTYLE
350
17
  3
ACAD_PLOTSETTINGS
350
19
  3
ACAD_PLOTSTYLENAME
350
E
  3
AcDbVariableDictionary
350
2FF
  3
ASE_INDEX_DICTIONARY
350
2FC
  0
DICTIONARY
  5
635
330
629
100
AcDbDictionary
280
     1
281
     1
  3
ACAD_DIMASSOC
360
63E
  0
DICTIONARY
  5
650
330
647
100
AcDbDictionary
280
     1
281
     1
  3
ACAD_DIMASSOC
360
656
  0
DICTIONARY
  5
1C
102
{ACAD_REACTORS
330
C
102
}
330
C
100
AcDbDictionary
281
     1
  0
DICTIONARY
  5
D
102
{ACAD_REACTORS
330
C
102
}
330
C
100
AcDbDictionary
281
     1
  0
DICTIONARY
  5
1A
102
{ACAD_REACTORS
330
C
102
}
330
C
100
AcDbDictionary
281
     1
  3
\M+5B2BC\M+5BED61
350
20
  3
\M+5B2BC\M+5BED62
350
28
  3
Model
350
24
  0
DICTIONARY
  5
1B
102
{ACAD_REACTORS
330
C
102
}
330
C
100
AcDbDictionary
281
     1
  0
DICTIONARY
  5
17
102
{ACAD_REACTORS
330
C
102
}
330
C
100
AcDbDictionary
281
     1
  3
Standard
350
18
  0
DICTIONARY
  5
19
102
{ACAD_REACTORS
330
C
102
}
330
C
100
AcDbDictionary
281
     1
  0
ACDBDICTIONARYWDFLT
  5
E
102
{ACAD_REACTORS
330
C
102
}
330
C
100
AcDbDictionary
281
     1
  3
Normal
350
F
100
AcDbDictionaryWithDefault
340
F
  0
DICTIONARY
  5
2FF
102
{ACAD_REACTORS
330
C
102
}
330
C
100
AcDbDictionary
281
     1
  3
DIMASSOC
350
301
  3
HIDETEXT
350
300
  3
PROJECTNAME
350
302
  0
DICTIONARY
  5
2FC
102
{ACAD_REACTORS
330
C
102
}
330
C
100
AcDbDictionary
281
     1
  3
ASEBlockHierarchyIndexRecord
350
2FE
1001
DCO15
1040
1619956071.812
  0
DIMASSOC
  5
63E
102
{ACAD_REACTORS
330
635
102
}
330
635
100
AcDbDimAssoc
330
629
 90
        2
 70
     0
 71
     0
  1
AcDbOsnapPointRef
 72
     3
331
600
 73
     2
 91
        0
 40
0.0
 10
0.0
 20
0.0
 30
0.0
 75
     0
  0
DIMASSOC
  5
656
102
{ACAD_REACTORS
330
650
102
}
330
650
100
AcDbDimAssoc
330
647
 90
        2
 70
     0
 71
     0
  1
AcDbOsnapPointRef
 72
     3
331
601
 73
     2
 91
        0
 40
0.0
 10
361.691644182903
 20
344.0217809290647
 30
0.0
 75
     0
  0
LAYOUT
  5
20
102
{ACAD_XDICTIONARY
360
307
102
}
102
{ACAD_REACTORS
330
1A
102
}
330
1A
100
AcDbPlotSettings
  1

  2
\M+5D4DA BENNG \M+5C9CF\M+5D7D4\M+5B6AF FX DocuPrint 255-AP
  4

  6

 40
0.0
 41
0.0
 42
0.0
 43
0.0
 44
0.0
 45
0.0
 46
0.0
 47
0.0
 48
0.0
 49
0.0
140
0.0
141
0.0
142
1.0
143
1.0
 70
   688
 72
     0
 73
     0
 74
     5
  7

 75
    16
147
1.0
148
0.0
149
0.0
100
AcDbLayout
  1
\M+5B2BC\M+5BED61
 70
     1
 71
     1
 10
0.0
 20
0.0
 11
12.0
 21
9.0
 12
0.0
 22
0.0
 32
0.0
 14
1.000000000000000E+20
 24
1.000000000000000E+20
 34
1.000000000000000E+20
 15
-1.000000000000000E+20
 25
-1.000000000000000E+20
 35
-1.000000000000000E+20
146
0.0
 13
0.0
 23
0.0
 33
0.0
 16
1.0
 26
0.0
 36
0.0
 17
0.0
 27
1.0
 37
0.0
 76
     0
330
1D
  0
LAYOUT
  5
28
102
{ACAD_XDICTIONARY
360
30B
102
}
102
{ACAD_REACTORS
330
1A
102
}
330
1A
100
AcDbPlotSettings
  1

  2
\M+5D4DA BENNG \M+5C9CF\M+5D7D4\M+5B6AF FX DocuPrint 255-AP
  4

  6

 40
0.0
 41
0.0
 42
0.0
 43
0.0
 44
0.0
 45
0.0
 46
0.0
 47
0.0
 48
0.0
 49
0.0
140
0.0
141
0.0
142
1.0
143
1.0
 70
   688
 72
     0
 73
     0
 74
     5
  7

 75
    16
147
1.0
148
0.0
149
0.0
100
AcDbLayout
  1
\M+5B2BC\M+5BED62
 70
     1
 71
     2
 10
0.0
 20
0.0
 11
12.0
 21
9.0
 12
0.0
 22
0.0
 32
0.0
 14
0.0
 24
0.0
 34
0.0
 15
0.0
 25
0.0
 35
0.0
146
0.0
 13
0.0
 23
0.0
 33
0.0
 16
1.0
 26
0.0
 36
0.0
 17
0.0
 27
1.0
 37
0.0
 76
     0
330
25
  0
LAYOUT
  5
24
102
{ACAD_XDICTIONARY
360
309
102
}
102
{ACAD_REACTORS
330
1A
102
}
330
1A
100
AcDbPlotSettings
  1

  2
\M+5D4DA BENNG \M+5C9CF\M+5D7D4\M+5B6AF FX DocuPrint 255-AP
  4

  6

 40
0.0
 41
0.0
 42
0.0
 43
0.0
 44
0.0
 45
0.0
 46
0.0
 47
0.0
 48
0.0
 49
0.0
140
0.0
141
0.0
142
1.0
143
1.0
 70
  1712
 72
     0
 73
     0
 74
     0
  7

 75
     0
147
1.0
148
0.0
149
0.0
100
AcDbLayout
  1
Model
 70
     1
 71
     0
 10
0.0
 20
0.0
 11
12.0
 21
9.0
 12
0.0
 22
0.0
 32
0.0
 14
0.0
 24
0.0
 34
0.0
 15
0.0
 25
0.0
 35
0.0
146
0.0
 13
0.0
 23
0.0
 33
0.0
 16
1.0
 26
0.0
 36
0.0
 17
0.0
 27
1.0
 37
0.0
 76
     0
330
21
  0
MLINESTYLE
  5
18
102
{ACAD_REACTORS
330
17
102
}
330
17
100
AcDbMlineStyle
  2
STANDARD
 70
     0
  3

 62
   256
 51
90.0
 52
90.0
 71
     2
 49
0.5
 62
   256
  6
BYLAYER
 49
-0.5
 62
   256
  6
BYLAYER
  0
ACDBPLACEHOLDER
  5
F
102
{ACAD_REACTORS
330
E
102
}
330
E
  0
DICTIONARYVAR
  5
301
102
{ACAD_REACTORS
330
2FF
102
}
330
2FF
100
DictionaryVariables
280
     0
  1
2
  0
DICTIONARYVAR
  5
300
102
{ACAD_REACTORS
330
2FF
102
}
330
2FF
100
DictionaryVariables
280
     0
  1
1
  0
DICTIONARYVAR
  5
302
102
{ACAD_REACTORS
330
2FF
102
}
330
2FF
100
DictionaryVariables
280
     0
  1

  0
XRECORD
  5
2FE
102
{ACAD_REACTORS
330
2FC
102
}
330
2FC
100
AcDbXrecord
280
     1
  0
DICTIONARY
  5
307
330
20
100
AcDbDictionary
280
     1
281
     1
  3
ACAD_XREC_ROUNDTRIP
360
308
  0
DICTIONARY
  5
30B
330
28
100
AcDbDictionary
280
     1
281
     1
  3
ACAD_XREC_ROUNDTRIP
360
30C
  0
DICTIONARY
  5
309
330
24
100
AcDbDictionary
280
     1
281
     1
  3
ACAD_XREC_ROUNDTRIP
360
30A
  0
XRECORD
  5
308
102
{ACAD_REACTORS
330
307
102
}
330
307
100
AcDbXrecord
280
     1
102
SHADEPLOT
 70
     0
102
SHADEPLOTRESLEVEL
 70
     2
102
SHADEPLOTCUSTOMDPI
 70
   300
  0
XRECORD
  5
30C
102
{ACAD_REACTORS
330
30B
102
}
330
30B
100
AcDbXrecord
280
     1
102
SHADEPLOT
 70
     0
102
SHADEPLOTRESLEVEL
 70
     2
102
SHADEPLOTCUSTOMDPI
 70
   300
  0
XRECORD
  5
30A
102
{ACAD_REACTORS
330
309
102
}
330
309
100
AcDbXrecord
280
     1
102
SHADEPLOT
 70
     0
102
SHADEPLOTRESLEVEL
 70
     2
102
SHADEPLOTCUSTOMDPI
 70
   300
  0
ENDSEC
  0
EOF
