  0
SECTION
  2
HEADER
  9
$ACADVER
  1
AC1015
  9
$ACADMAINTVER
 70
    13
  9
$DWGCODEPAGE
  3
ANSI_1252
  9
$INSBASE
 10
0.0
 20
0.0
 30
0.0
  9
$EXTMIN
 10
189.9560552912635
 20
277.0096862139586
 30
0.0
  9
$EXTMAX
 10
209.8823003747854
 20
297.8780457172737
 30
0.0
  9
$LIMMIN
 10
0.0
 20
0.0
  9
$LIMMAX
 10
12.0
 20
9.0
  9
$ORTHOMODE
 70
     1
  9
$REGENMODE
 70
     1
  9
$FILLMODE
 70
     1
  9
$QTEXTMODE
 70
     0
  9
$MIRRTEXT
 70
     0
  9
$LTSCALE
 40
1.0
  9
$ATTMODE
 70
     1
  9
$TEXTSIZE
 40
1.0
  9
$TRACEWID
 40
0.05
  9
$TEXTSTYLE
  7
Standard
  9
$CLAYER
  8
0
  9
$CELTYPE
  6
ByLayer
  9
$CECOLOR
 62
   256
  9
$CELTSCALE
 40
1.0
  9
$DISPSILH
 70
     0
  9
$DIMSCALE
 40
1.0
  9
$DIMASZ
 40
0.18
  9
$DIMEXO
 40
0.0625
  9
$DIMDLI
 40
0.38
  9
$DIMRND
 40
0.0
  9
$DIMDLE
 40
0.0
  9
$DIMEXE
 40
0.18
  9
$DIMTP
 40
0.0
  9
$DIMTM
 40
0.0
  9
$DIMTXT
 40
0.18
  9
$DIMCEN
 40
0.09
  9
$DIMTSZ
 40
0.0
  9
$DIMTOL
 70
     0
  9
$DIMLIM
 70
     0
  9
$DIMTIH
 70
     1
  9
$DIMTOH
 70
     1
  9
$DIMSE1
 70
     0
  9
$DIMSE2
 70
     0
  9
$DIMTAD
 70
     0
  9
$DIMZIN
 70
     0
  9
$DIMBLK
  1

  9
$DIMASO
 70
     1
  9
$DIMSHO
 70
     1
  9
$DIMPOST
  1

  9
$DIMAPOST
  1

  9
$DIMALT
 70
     0
  9
$DIMALTD
 70
     2
  9
$DIMALTF
 40
25.4
  9
$DIMLFAC
 40
1.0
  9
$DIMTOFL
 70
     0
  9
$DIMTVP
 40
0.0
  9
$DIMTIX
 70
     0
  9
$DIMSOXD
 70
     0
  9
$DIMSAH
 70
     0
  9
$DIMBLK1
  1

  9
$DIMBLK2
  1

  9
$DIMSTYLE
  2
Standard
  9
$DIMCLRD
 70
     0
  9
$DIMCLRE
 70
     0
  9
$DIMCLRT
 70
     0
  9
$DIMTFAC
 40
1.0
  9
$DIMGAP
 40
0.09
  9
$DIMJUST
 70
     0
  9
$DIMSD1
 70
     0
  9
$DIMSD2
 70
     0
  9
$DIMTOLJ
 70
     1
  9
$DIMTZIN
 70
     0
  9
$DIMALTZ
 70
     0
  9
$DIMALTTZ
 70
     0
  9
$DIMUPT
 70
     0
  9
$DIMDEC
 70
     4
  9
$DIMTDEC
 70
     4
  9
$DIMALTU
 70
     2
  9
$DIMALTTD
 70
     2
  9
$DIMTXSTY
  7
Standard
  9
$DIMAUNIT
 70
     0
  9
$DIMADEC
 70
     0
  9
$DIMALTRND
 40
0.0
  9
$DIMAZIN
 70
     0
  9
$DIMDSEP
 70
    46
  9
$DIMATFIT
 70
     3
  9
$DIMFRAC
 70
     0
  9
$DIMLDRBLK
  1

  9
$DIMLUNIT
 70
     2
  9
$DIMLWD
 70
    -2
  9
$DIMLWE
 70
    -2
  9
$DIMTMOVE
 70
     0
  9
$LUNITS
 70
     2
  9
$LUPREC
 70
     4
  9
$SKETCHINC
 40
0.1
  9
$FILLETRAD
 40
0.0
  9
$AUNITS
 70
     0
  9
$AUPREC
 70
     0
  9
$MENU
  1
.
  9
$ELEVATION
 40
0.0
  9
$PELEVATION
 40
0.0
  9
$THICKNESS
 40
0.0
  9
$LIMCHECK
 70
     0
  9
$CHAMFERA
 40
0.0
  9
$CHAMFERB
 40
0.0
  9
$CHAMFERC
 40
0.0
  9
$CHAMFERD
 40
0.0
  9
$SKPOLY
 70
     0
  9
$TDCREATE
 40
2454748.117425301
  9
$TDUCREATE
 40
2454748.325758634
  9
$TDUPDATE
 40
2454931.614802696
  9
$TDUUPDATE
 40
2454931.823136030
  9
$TDINDWG
 40
0.0070108333
  9
$TDUSRTIMER
 40
0.0070106597
  9
$USRTIMER
 70
     1
  9
$ANGBASE
 50
0.0
  9
$ANGDIR
 70
     0
  9
$PDMODE
 70
     0
  9
$PDSIZE
 40
0.0
  9
$PLINEWID
 40
0.0
  9
$SPLFRAME
 70
     0
  9
$SPLINETYPE
 70
     6
  9
$SPLINESEGS
 70
     8
  9
$HANDSEED
  5
3F2
  9
$SURFTAB1
 70
     6
  9
$SURFTAB2
 70
     6
  9
$SURFTYPE
 70
     6
  9
$SURFU
 70
     6
  9
$SURFV
 70
     6
  9
$UCSBASE
  2

  9
$UCSNAME
  2

  9
$UCSORG
 10
0.0
 20
0.0
 30
0.0
  9
$UCSXDIR
 10
1.0
 20
0.0
 30
0.0
  9
$UCSYDIR
 10
0.0
 20
1.0
 30
0.0
  9
$UCSORTHOREF
  2

  9
$UCSORTHOVIEW
 70
     0
  9
$UCSORGTOP
 10
0.0
 20
0.0
 30
0.0
  9
$UCSORGBOTTOM
 10
0.0
 20
0.0
 30
0.0
  9
$UCSORGLEFT
 10
0.0
 20
0.0
 30
0.0
  9
$UCSORGRIGHT
 10
0.0
 20
0.0
 30
0.0
  9
$UCSORGFRONT
 10
0.0
 20
0.0
 30
0.0
  9
$UCSORGBACK
 10
0.0
 20
0.0
 30
0.0
  9
$PUCSBASE
  2

  9
$PUCSNAME
  2

  9
$PUCSORG
 10
0.0
 20
0.0
 30
0.0
  9
$PUCSXDIR
 10
1.0
 20
0.0
 30
0.0
  9
$PUCSYDIR
 10
0.0
 20
1.0
 30
0.0
  9
$PUCSORTHOREF
  2

  9
$PUCSORTHOVIEW
 70
     0
  9
$PUCSORGTOP
 10
0.0
 20
0.0
 30
0.0
  9
$PUCSORGBOTTOM
 10
0.0
 20
0.0
 30
0.0
  9
$PUCSORGLEFT
 10
0.0
 20
0.0
 30
0.0
  9
$PUCSORGRIGHT
 10
0.0
 20
0.0
 30
0.0
  9
$PUCSORGFRONT
 10
0.0
 20
0.0
 30
0.0
  9
$PUCSORGBACK
 10
0.0
 20
0.0
 30
0.0
  9
$USERI1
 70
     0
  9
$USERI2
 70
     0
  9
$USERI3
 70
     0
  9
$USERI4
 70
     0
  9
$USERI5
 70
     0
  9
$USERR1
 40
0.0
  9
$USERR2
 40
0.0
  9
$USERR3
 40
0.0
  9
$USERR4
 40
0.0
  9
$USERR5
 40
0.0
  9
$WORLDVIEW
 70
     1
  9
$SHADEDGE
 70
     3
  9
$SHADEDIF
 70
    70
  9
$TILEMODE
 70
     1
  9
$MAXACTVP
 70
    64
  9
$PINSBASE
 10
0.0
 20
0.0
 30
0.0
  9
$PLIMCHECK
 70
     0
  9
$PEXTMIN
 10
1.000000000000000E+20
 20
1.000000000000000E+20
 30
1.000000000000000E+20
  9
$PEXTMAX
 10
-1.000000000000000E+20
 20
-1.000000000000000E+20
 30
-1.000000000000000E+20
  9
$PLIMMIN
 10
0.0
 20
0.0
  9
$PLIMMAX
 10
12.0
 20
9.0
  9
$UNITMODE
 70
     0
  9
$VISRETAIN
 70
     1
  9
$PLINEGEN
 70
     0
  9
$PSLTSCALE
 70
     1
  9
$TREEDEPTH
 70
  3020
  9
$CMLSTYLE
  2
Standard
  9
$CMLJUST
 70
     0
  9
$CMLSCALE
 40
1.0
  9
$PROXYGRAPHICS
 70
     1
  9
$MEASUREMENT
 70
     0
  9
$CELWEIGHT
370
    -1
  9
$ENDCAPS
280
     0
  9
$JOINSTYLE
280
     0
  9
$LWDISPLAY
290
     0
  9
$INSUNITS
 70
     1
  9
$HYPERLINKBASE
  1

  9
$STYLESHEET
  1
monochrome.ctb
  9
$XEDIT
290
     1
  9
$CEPSNTYPE
380
     0
  9
$PSTYLEMODE
290
     1
  9
$FINGERPRINTGUID
  2
{844205C1-0908-4BD1-9E48-38BDBD2A8A40}
  9
$VERSIONGUID
  2
{A70A335C-76FE-43A1-B296-05E41D202523}
  9
$EXTNAMES
290
     1
  9
$PSVPSCALE
 40
0.0
  9
$OLESTARTUP
290
     0
  0
ENDSEC
  0
SECTION
  2
CLASSES
  0
CLASS
  1
ACDBDICTIONARYWDFLT
  2
AcDbDictionaryWithDefault
  3
AutoCAD 2000
 90
        0
280
     0
281
     0
  0
CLASS
  1
TABLESTYLE
  2
AcDbTableStyle
  3
ObjectDBX Classes
 90
     2047
280
     0
281
     0
  0
CLASS
  1
DIMASSOC
  2
AcDbDimAssoc
  3
"AcDbDimAssoc|Product Desc:     AcDim ARX App For Dimension|Company:          Autodesk, Inc.|WEB Address:      www.autodesk.com"
 90
        0
280
     0
281
     0
  0
CLASS
  1
SORTENTSTABLE
  2
AcDbSortentsTable
  3
AutoCAD 2000
 90
    32768
280
     0
281
     0
  0
CLASS
  1
DICTIONARYVAR
  2
AcDbDictionaryVar
  3
AutoCAD 2000
 90
        0
280
     0
281
     0
  0
CLASS
  1
ACDBPLACEHOLDER
  2
AcDbPlaceHolder
  3
AutoCAD 2000
 90
        0
280
     0
281
     0
  0
CLASS
  1
LAYOUT
  2
AcDbLayout
  3
AutoCAD 2000
 90
        0
280
     0
281
     0
  0
ENDSEC
  0
SECTION
  2
TABLES
  0
TABLE
  2
VPORT
  5
8
330
0
100
AcDbSymbolTable
 70
     2
  0
VPORT
  5
3F1
330
8
100
AcDbSymbolTableRecord
100
AcDbViewportTableRecord
  2
*Active
 70
     0
 10
0.0
 20
0.0
 11
1.0
 21
1.0
 12
201.7816456940031
 22
287.0701887448024
 13
0.0
 23
0.0
 14
0.5
 24
0.5
 15
0.5
 25
0.5
 16
0.0
 26
0.0
 36
1.0
 17
0.0
 27
0.0
 37
0.0
 40
34.08531216081462
 41
1.956097560975609
 42
50.0
 43
0.0
 44
0.0
 50
0.0
 51
0.0
 71
     0
 72
  1000
 73
     1
 74
     3
 75
     0
 76
     0
 77
     0
 78
     0
281
     0
 65
     1
110
0.0
120
0.0
130
0.0
111
1.0
121
0.0
131
0.0
112
0.0
122
1.0
132
0.0
 79
     0
146
0.0
  0
ENDTAB
  0
TABLE
  2
LTYPE
  5
5
330
0
100
AcDbSymbolTable
 70
     3
  0
LTYPE
  5
14
330
5
100
AcDbSymbolTableRecord
100
AcDbLinetypeTableRecord
  2
ByBlock
 70
     0
  3

 72
    65
 73
     0
 40
0.0
  0
LTYPE
  5
15
330
5
100
AcDbSymbolTableRecord
100
AcDbLinetypeTableRecord
  2
ByLayer
 70
     0
  3

 72
    65
 73
     0
 40
0.0
  0
LTYPE
  5
16
330
5
100
AcDbSymbolTableRecord
100
AcDbLinetypeTableRecord
  2
Continuous
 70
     0
  3
Solid line
 72
    65
 73
     0
 40
0.0
  0
LTYPE
  5
75
330
5
100
AcDbSymbolTableRecord
100
AcDbLinetypeTableRecord
  2
HIDDENX2
 70
     0
  3
Hidden (2x) ____ ____ ____ ____ ____ ____ ____
 72
    65
 73
     2
 40
19.05
 49
12.7
 74
     0
 49
-6.349999999999997
 74
     0
  0
LTYPE
  5
13E
330
5
100
AcDbSymbolTableRecord
100
AcDbLinetypeTableRecord
  2
HIDDEN2
 70
     0
  3
Hidden (.5x) _ _ _ _ _ _ _ _ _ _ _ _ _ _ _ _ _
 72
    65
 73
     2
 40
0.1875
 49
0.125
 74
     0
 49
-0.0625
 74
     0
  0
ENDTAB
  0
TABLE
  2
LAYER
  5
2
330
0
100
AcDbSymbolTable
 70
     5
  0
LAYER
  5
10
330
2
100
AcDbSymbolTableRecord
100
AcDbLayerTableRecord
  2
0
 70
     0
 62
     7
  6
Continuous
370
    -3
390
F
  0
LAYER
  5
76
330
2
100
AcDbSymbolTableRecord
100
AcDbLayerTableRecord
  2
\M+5B1EA\M+5D7A2
 70
     0
 62
    80
  6
Continuous
370
    -3
390
F
1001
AcAecLayerStandard
1000

1000

  0
LAYER
  5
77
330
2
100
AcDbSymbolTableRecord
100
AcDbLayerTableRecord
  2
Defpoints
 70
     0
 62
     7
  6
Continuous
290
     0
370
    -3
390
F
  0
LAYER
  5
78
330
2
100
AcDbSymbolTableRecord
100
AcDbLayerTableRecord
  2
\M+5D0E9\M+5CFDF
 70
     0
 62
   130
  6
HIDDENX2
370
    35
390
F
1001
AcAecLayerStandard
1000

1000

  0
LAYER
  5
13F
330
2
100
AcDbSymbolTableRecord
100
AcDbLayerTableRecord
  2
\M+5CDBC\M+5B2E31
 70
     0
 62
     7
  6
HIDDEN2
370
    -3
390
F
  0
ENDTAB
  0
TABLE
  2
STYLE
  5
3
330
0
100
AcDbSymbolTable
 70
     1
  0
STYLE
  5
11
330
3
100
AcDbSymbolTableRecord
100
AcDbTextStyleTableRecord
  2
Standard
 70
     0
 40
0.0
 41
1.0
 50
0.0
 71
     0
 42
1.0
  3
txt
  4

  0
ENDTAB
  0
TABLE
  2
VIEW
  5
6
330
0
100
AcDbSymbolTable
 70
     0
  0
ENDTAB
  0
TABLE
  2
UCS
  5
7
330
0
100
AcDbSymbolTable
 70
     0
  0
ENDTAB
  0
TABLE
  2
APPID
  5
9
330
0
100
AcDbSymbolTable
 70
     7
  0
APPID
  5
12
330
9
100
AcDbSymbolTableRecord
100
AcDbRegAppTableRecord
  2
ACAD
 70
     0
  0
APPID
  5
7B
330
9
100
AcDbSymbolTableRecord
100
AcDbRegAppTableRecord
  2
ACAD_PSEXT
 70
     0
  0
APPID
  5
7C
330
9
100
AcDbSymbolTableRecord
100
AcDbRegAppTableRecord
  2
AcAecLayerStandard
 70
     0
  0
APPID
  5
7D
330
9
100
AcDbSymbolTableRecord
100
AcDbRegAppTableRecord
  2
ACAD_DSTYLE_DIMEXT_LENGTH
 70
     0
  0
APPID
  5
7E
330
9
100
AcDbSymbolTableRecord
100
AcDbRegAppTableRecord
  2
ACAD_DSTYLE_DIMEXT_ENABLED
 70
     0
  0
APPID
  5
7F
330
9
100
AcDbSymbolTableRecord
100
AcDbRegAppTableRecord
  2
ACAD_DSTYLE_DIMJOGGED_JOGANGLE_SYMBOL
 70
     0
  0
APPID
  5
80
330
9
100
AcDbSymbolTableRecord
100
AcDbRegAppTableRecord
  2
ACAD_DSTYLE_DIMARC_LENGTH_SYMBOL
 70
     0
  0
ENDTAB
  0
TABLE
  2
DIMSTYLE
  5
A
330
0
100
AcDbSymbolTable
 70
     3
100
AcDbDimStyleTable
 71
     1
340
2B
  0
DIMSTYLE
105
2B
102
{ACAD_REACTORS
330
312
330
32C
330
364
330
37E
330
3AC
330
3C2
102
}
330
A
100
AcDbSymbolTableRecord
100
AcDbDimStyleTableRecord
  2
Standard
 70
     0
340
11
  0
DIMSTYLE
105
79
330
A
100
AcDbSymbolTableRecord
100
AcDbDimStyleTableRecord
  2
ISO-25
 70
     0
 41
10.0
 42
5.0
 43
3.75
 44
3.0
 73
     0
 74
     0
 77
     1
 78
     8
140
24.0
141
7.0
143
0.03937007874016
147
5.0
171
     3
172
     1
271
     2
272
     2
274
     3
278
    44
283
     0
284
     8
340
11
1001
ACAD_DSTYLE_DIMEXT_LENGTH
1070
   378
1040
1.25
1001
ACAD_DSTYLE_DIMEXT_ENABLED
1070
   383
1070
     0
1001
ACAD_DSTYLE_DIMARC_LENGTH_SYMBOL
1070
   379
1070
     0
1001
ACAD_DSTYLE_DIMJOGGED_JOGANGLE_SYMBOL
1070
   384
1040
1.570796326794896
  0
DIMSTYLE
105
7A
330
A
100
AcDbSymbolTableRecord
100
AcDbDimStyleTableRecord
  2
mav
 70
     0
 41
12.0
 42
7.0
 43
3.75
 44
1.25
 73
     0
 74
     0
 77
     1
 78
     8
140
15.0
141
2.5
143
0.03937007874016
147
5.0
171
     3
172
     1
271
     2
272
     2
274
     3
278
    44
283
     0
284
     8
340
11
1001
ACAD_DSTYLE_DIMEXT_LENGTH
1070
   378
1040
1.25
1001
ACAD_DSTYLE_DIMEXT_ENABLED
1070
   383
1070
     0
1001
ACAD_DSTYLE_DIMARC_LENGTH_SYMBOL
1070
   379
1070
     0
1001
ACAD_DSTYLE_DIMJOGGED_JOGANGLE_SYMBOL
1070
   384
1040
1.570796326794896
  0
ENDTAB
  0
TABLE
  2
BLOCK_RECORD
  5
1
330
0
100
AcDbSymbolTable
 70
     8
  0
BLOCK_RECORD
  5
23
330
1
100
AcDbSymbolTableRecord
100
AcDbBlockTableRecord
  2
*Model_Space
340
26
  0
BLOCK_RECORD
  5
1F
330
1
100
AcDbSymbolTableRecord
100
AcDbBlockTableRecord
  2
*Paper_Space
340
22
  0
BLOCK_RECORD
  5
27
330
1
100
AcDbSymbolTableRecord
100
AcDbBlockTableRecord
  2
*Paper_Space0
340
2A
  0
BLOCK_RECORD
  5
313
330
1
100
AcDbSymbolTableRecord
100
AcDbBlockTableRecord
  2
*D1
340
0
  0
BLOCK_RECORD
  5
32D
330
1
100
AcDbSymbolTableRecord
100
AcDbBlockTableRecord
  2
*D2
340
0
  0
BLOCK_RECORD
  5
365
330
1
100
AcDbSymbolTableRecord
100
AcDbBlockTableRecord
  2
*D3
340
0
  0
BLOCK_RECORD
  5
37F
330
1
100
AcDbSymbolTableRecord
100
AcDbBlockTableRecord
  2
*D4
340
0
  0
BLOCK_RECORD
  5
3AD
330
1
100
AcDbSymbolTableRecord
100
AcDbBlockTableRecord
  2
*D5
340
0
  0
BLOCK_RECORD
  5
3C3
330
1
100
AcDbSymbolTableRecord
100
AcDbBlockTableRecord
  2
*D6
340
0
  0
BLOCK_RECORD
  5
3D9
330
1
100
AcDbSymbolTableRecord
100
AcDbBlockTableRecord
  2
*U7
340
0
102
{BLKREFS
331
3E5
102
}
  0
ENDTAB
  0
ENDSEC
  0
SECTION
  2
BLOCKS
  0
BLOCK
  5
24
330
23
100
AcDbEntity
  8
0
100
AcDbBlockBegin
  2
*Model_Space
 70
     0
 10
0.0
 20
0.0
 30
0.0
  3
*Model_Space
  1

  0
ENDBLK
  5
25
330
23
100
AcDbEntity
  8
0
100
AcDbBlockEnd
  0
BLOCK
  5
20
330
1F
100
AcDbEntity
 67
     1
  8
0
100
AcDbBlockBegin
  2
*Paper_Space
 70
     0
 10
0.0
 20
0.0
 30
0.0
  3
*Paper_Space
  1

  0
ENDBLK
  5
21
330
1F
100
AcDbEntity
 67
     1
  8
0
100
AcDbBlockEnd
  0
BLOCK
  5
28
330
27
100
AcDbEntity
  8
0
100
AcDbBlockBegin
  2
*Paper_Space0
 70
     0
 10
0.0
 20
0.0
 30
0.0
  3
*Paper_Space0
  1

  0
ENDBLK
  5
29
330
27
100
AcDbEntity
  8
0
100
AcDbBlockEnd
  0
BLOCK
  5
31E
330
313
100
AcDbEntity
  8
0
100
AcDbBlockBegin
  2
*D1
 70
     1
 10
0.0
 20
0.0
 30
0.0
  3
*D1
  1

  0
LINE
  5
35A
330
313
100
AcDbEntity
  8
0
 62
     0
370
    -2
100
AcDbLine
 10
192.6586348963625
 20
287.0966328775695
 30
0.0
 11
192.6586348963625
 21
281.1422678019755
 31
0.0
  0
LINE
  5
35B
330
313
100
AcDbEntity
  8
0
 62
     0
370
    -2
100
AcDbLine
 10
204.7058548963617
 20
287.0966328775695
 30
0.0
 11
204.7058548963617
 21
281.1422678019755
 31
0.0
  0
LINE
  5
35C
330
313
100
AcDbEntity
  8
0
 62
     0
370
    -2
100
AcDbLine
 10
192.8386348963625
 20
281.3222678019755
 30
0.0
 11
198.0972448963621
 21
281.3222678019755
 31
0.0
  0
LINE
  5
35D
330
313
100
AcDbEntity
  8
0
 62
     0
370
    -2
100
AcDbLine
 10
204.5258548963616
 20
281.3222678019755
 30
0.0
 11
199.2672448963621
 21
281.3222678019755
 31
0.0
  0
SOLID
  5
35E
330
313
100
AcDbEntity
  8
0
 62
     0
100
AcDbTrace
 10
192.8386348963625
 20
281.3522678019755
 30
0.0
 11
192.8386348963625
 21
281.2922678019755
 31
0.0
 12
192.6586348963625
 22
281.3222678019755
 32
0.0
 13
192.6586348963625
 23
281.3222678019755
 33
0.0
  0
SOLID
  5
35F
330
313
100
AcDbEntity
  8
0
 62
     0
100
AcDbTrace
 10
204.5258548963616
 20
281.3522678019755
 30
0.0
 11
204.5258548963616
 21
281.2922678019755
 31
0.0
 12
204.7058548963617
 22
281.3222678019755
 32
0.0
 13
204.7058548963617
 23
281.3222678019755
 33
0.0
  0
MTEXT
  5
360
330
313
100
AcDbEntity
  8
0
 62
     0
100
AcDbMText
 10
198.6822448963621
 20
281.3222678019755
 30
0.0
 40
0.18
 41
0.0
 71
     5
 72
     1
  1
\A1;12.0472
 73
     1
 44
1.0
  0
POINT
  5
361
330
313
100
AcDbEntity
  8
Defpoints
 62
     0
100
AcDbPoint
 10
192.6586348963625
 20
287.1591328775695
 30
0.0
  0
POINT
  5
362
330
313
100
AcDbEntity
  8
Defpoints
 62
     0
100
AcDbPoint
 10
204.7058548963617
 20
287.1591328775695
 30
0.0
  0
POINT
  5
363
330
313
100
AcDbEntity
  8
Defpoints
 62
     0
100
AcDbPoint
 10
204.7058548963617
 20
281.3222678019755
 30
0.0
  0
ENDBLK
  5
31F
330
313
100
AcDbEntity
  8
0
100
AcDbBlockEnd
  0
BLOCK
  5
338
330
32D
100
AcDbEntity
  8
0
100
AcDbBlockBegin
  2
*D2
 70
     1
 10
0.0
 20
0.0
 30
0.0
  3
*D2
  1

  0
LINE
  5
346
330
32D
100
AcDbEntity
  8
0
 62
     0
370
    -2
100
AcDbLine
 10
192.934224896363
 20
287.0966328775695
 30
0.0
 11
192.934224896363
 21
282.2864220483361
 31
0.0
  0
LINE
  5
347
330
32D
100
AcDbEntity
  8
0
 62
     0
370
    -2
100
AcDbLine
 10
204.4302648963617
 20
287.0966328775695
 30
0.0
 11
204.4302648963617
 21
282.2864220483361
 31
0.0
  0
LINE
  5
348
330
32D
100
AcDbEntity
  8
0
 62
     0
370
    -2
100
AcDbLine
 10
193.114224896363
 20
282.4664220483361
 30
0.0
 11
198.1272448963623
 21
282.4664220483361
 31
0.0
  0
LINE
  5
349
330
32D
100
AcDbEntity
  8
0
 62
     0
370
    -2
100
AcDbLine
 10
204.2502648963616
 20
282.4664220483361
 30
0.0
 11
199.2372448963623
 21
282.4664220483361
 31
0.0
  0
SOLID
  5
34A
330
32D
100
AcDbEntity
  8
0
 62
     0
100
AcDbTrace
 10
193.114224896363
 20
282.4964220483361
 30
0.0
 11
193.114224896363
 21
282.4364220483361
 31
0.0
 12
192.934224896363
 22
282.4664220483361
 32
0.0
 13
192.934224896363
 23
282.4664220483361
 33
0.0
  0
SOLID
  5
34B
330
32D
100
AcDbEntity
  8
0
 62
     0
100
AcDbTrace
 10
204.2502648963616
 20
282.4964220483361
 30
0.0
 11
204.2502648963616
 21
282.4364220483361
 31
0.0
 12
204.4302648963617
 22
282.4664220483361
 32
0.0
 13
204.4302648963617
 23
282.4664220483361
 33
0.0
  0
MTEXT
  5
34C
330
32D
100
AcDbEntity
  8
0
 62
     0
100
AcDbMText
 10
198.6822448963623
 20
282.4664220483361
 30
0.0
 40
0.18
 41
0.0
 71
     5
 72
     1
  1
\A1;11.4960
 73
     1
 44
1.0
  0
POINT
  5
34D
330
32D
100
AcDbEntity
  8
Defpoints
 62
     0
100
AcDbPoint
 10
192.934224896363
 20
287.1591328775695
 30
0.0
  0
POINT
  5
34E
330
32D
100
AcDbEntity
  8
Defpoints
 62
     0
100
AcDbPoint
 10
204.4302648963617
 20
287.1591328775695
 30
0.0
  0
POINT
  5
34F
330
32D
100
AcDbEntity
  8
Defpoints
 62
     0
100
AcDbPoint
 10
204.4302648963617
 20
282.4664220483361
 30
0.0
  0
ENDBLK
  5
339
330
32D
100
AcDbEntity
  8
0
100
AcDbBlockEnd
  0
BLOCK
  5
370
330
365
100
AcDbEntity
  8
0
100
AcDbBlockBegin
  2
*D3
 70
     1
 10
0.0
 20
0.0
 30
0.0
  3
*D3
  1

  0
LINE
  5
3A2
330
365
100
AcDbEntity
  8
0
 62
     0
370
    -2
100
AcDbLine
 10
201.1069448963616
 20
296.8441528775695
 30
0.0
 11
206.9840809857887
 21
296.8441528775695
 31
0.0
  0
LINE
  5
3A3
330
365
100
AcDbEntity
  8
0
 62
     0
370
    -2
100
AcDbLine
 10
201.1069448963616
 20
283.7733128775695
 30
0.0
 11
206.9840809857887
 21
283.7733128775695
 31
0.0
  0
LINE
  5
3A4
330
365
100
AcDbEntity
  8
0
 62
     0
370
    -2
100
AcDbLine
 10
206.8040809857887
 20
296.6641528775695
 30
0.0
 11
206.8040809857887
 21
290.7873841483983
 31
0.0
  0
LINE
  5
3A5
330
365
100
AcDbEntity
  8
0
 62
     0
370
    -2
100
AcDbLine
 10
206.8040809857887
 20
283.9533128775694
 30
0.0
 11
206.8040809857887
 21
290.4273841483983
 31
0.0
  0
SOLID
  5
3A6
330
365
100
AcDbEntity
  8
0
 62
     0
100
AcDbTrace
 10
206.7740809857887
 20
296.6641528775695
 30
0.0
 11
206.8340809857887
 21
296.6641528775695
 31
0.0
 12
206.8040809857887
 22
296.8441528775695
 32
0.0
 13
206.8040809857887
 23
296.8441528775695
 33
0.0
  0
SOLID
  5
3A7
330
365
100
AcDbEntity
  8
0
 62
     0
100
AcDbTrace
 10
206.7740809857887
 20
283.9533128775694
 30
0.0
 11
206.8340809857887
 21
283.9533128775694
 31
0.0
 12
206.8040809857887
 22
283.7733128775695
 32
0.0
 13
206.8040809857887
 23
283.7733128775695
 33
0.0
  0
MTEXT
  5
3A8
330
365
100
AcDbEntity
  8
0
 62
     0
100
AcDbMText
 10
206.8040809857886
 20
290.6073841483983
 30
0.0
 40
0.18
 41
0.0
 71
     5
 72
     1
  1
\A1;13.0708
 73
     1
 44
1.0
  0
POINT
  5
3A9
330
365
100
AcDbEntity
  8
Defpoints
 62
     0
100
AcDbPoint
 10
201.0444448963617
 20
296.8441528775695
 30
0.0
  0
POINT
  5
3AA
330
365
100
AcDbEntity
  8
Defpoints
 62
     0
100
AcDbPoint
 10
201.0444448963617
 20
283.7733128775695
 30
0.0
  0
POINT
  5
3AB
330
365
100
AcDbEntity
  8
Defpoints
 62
     0
100
AcDbPoint
 10
206.8040809857887
 20
283.7733128775695
 30
0.0
  0
ENDBLK
  5
371
330
365
100
AcDbEntity
  8
0
100
AcDbBlockEnd
  0
BLOCK
  5
38A
330
37F
100
AcDbEntity
  8
0
100
AcDbBlockBegin
  2
*D4
 70
     1
 10
0.0
 20
0.0
 30
0.0
  3
*D4
  1

  0
LINE
  5
398
330
37F
100
AcDbEntity
  8
0
 62
     0
370
    -2
100
AcDbLine
 10
201.1069448963616
 20
297.1197428775695
 30
0.0
 11
209.5673003747854
 21
297.1197428775695
 31
0.0
  0
LINE
  5
399
330
37F
100
AcDbEntity
  8
0
 62
     0
370
    -2
100
AcDbLine
 10
201.1069448963616
 20
283.4977228775695
 30
0.0
 11
209.5673003747854
 21
283.4977228775695
 31
0.0
  0
LINE
  5
39A
330
37F
100
AcDbEntity
  8
0
 62
     0
370
    -2
100
AcDbLine
 10
209.3873003747854
 20
296.9397428775694
 30
0.0
 11
209.3873003747854
 21
290.7873841483983
 31
0.0
  0
LINE
  5
39B
330
37F
100
AcDbEntity
  8
0
 62
     0
370
    -2
100
AcDbLine
 10
209.3873003747854
 20
283.6777228775695
 30
0.0
 11
209.3873003747854
 21
290.4273841483983
 31
0.0
  0
SOLID
  5
39C
330
37F
100
AcDbEntity
  8
0
 62
     0
100
AcDbTrace
 10
209.3573003747854
 20
296.9397428775694
 30
0.0
 11
209.4173003747854
 21
296.9397428775694
 31
0.0
 12
209.3873003747854
 22
297.1197428775695
 32
0.0
 13
209.3873003747854
 23
297.1197428775695
 33
0.0
  0
SOLID
  5
39D
330
37F
100
AcDbEntity
  8
0
 62
     0
100
AcDbTrace
 10
209.3573003747854
 20
283.6777228775695
 30
0.0
 11
209.4173003747854
 21
283.6777228775695
 31
0.0
 12
209.3873003747854
 22
283.4977228775695
 32
0.0
 13
209.3873003747854
 23
283.4977228775695
 33
0.0
  0
MTEXT
  5
39E
330
37F
100
AcDbEntity
  8
0
 62
     0
100
AcDbMText
 10
209.3873003747854
 20
290.6073841483983
 30
0.0
 40
0.18
 41
0.0
 71
     5
 72
     1
  1
\A1;13.6220
 73
     1
 44
1.0
  0
POINT
  5
39F
330
37F
100
AcDbEntity
  8
Defpoints
 62
     0
100
AcDbPoint
 10
201.0444448963617
 20
297.1197428775695
 30
0.0
  0
POINT
  5
3A0
330
37F
100
AcDbEntity
  8
Defpoints
 62
     0
100
AcDbPoint
 10
201.0444448963617
 20
283.4977228775695
 30
0.0
  0
POINT
  5
3A1
330
37F
100
AcDbEntity
  8
Defpoints
 62
     0
100
AcDbPoint
 10
209.3873003747854
 20
283.4977228775695
 30
0.0
  0
ENDBLK
  5
38B
330
37F
100
AcDbEntity
  8
0
100
AcDbBlockEnd
  0
BLOCK
  5
3B6
330
3AD
100
AcDbEntity
  8
0
100
AcDbBlockBegin
  2
*D5
 70
     1
 10
0.0
 20
0.0
 30
0.0
  3
*D5
  1

  0
LINE
  5
3B9
330
3AD
100
AcDbEntity
  8
0
 62
     0
370
    -2
100
AcDbLine
 10
191.0660552912635
 20
297.1057293129067
 30
0.0
 11
191.2460552912635
 21
297.1057293129066
 31
0.0
  0
LINE
  5
3BA
330
3AD
100
AcDbEntity
  8
0
 62
     0
370
    -2
100
AcDbLine
 10
191.2460552912635
 20
297.1057293129066
 30
0.0
 11
193.2008968150862
 21
295.7005072764889
 31
0.0
  0
MTEXT
  5
3BB
330
3AD
100
AcDbEntity
  8
0
 62
     0
100
AcDbMText
 10
190.4660552912635
 20
297.1057293129066
 30
0.0
 40
0.18
 41
0.0
 71
     5
 72
     1
  1
\A1;R3.6614
 73
     1
 44
1.0
  0
SOLID
  5
3BC
330
3AD
100
AcDbEntity
  8
0
 62
     0
100
AcDbTrace
 10
193.2184073729198
 20
295.7248666764067
 30
0.0
 11
193.1833862572526
 21
295.6761478765711
 31
0.0
 12
193.3470532145931
 22
295.5954439294874
 32
0.0
 13
193.3470532145931
 23
295.5954439294874
 33
0.0
  0
LINE
  5
3BD
330
3AD
100
AcDbEntity
  8
0
 62
     0
370
    -2
100
AcDbLine
 10
196.2300448963624
 20
293.4583328775697
 30
0.0
 11
196.4100448963624
 21
293.4583328775698
 31
0.0
  0
LINE
  5
3BE
330
3AD
100
AcDbEntity
  8
0
 62
     0
370
    -2
100
AcDbLine
 10
196.3200448963624
 20
293.3683328775698
 30
0.0
 11
196.3200448963624
 21
293.5483328775698
 31
0.0
  0
POINT
  5
3BF
330
3AD
100
AcDbEntity
  8
Defpoints
 62
     0
100
AcDbPoint
 10
193.3470532145931
 20
295.5954439294874
 30
0.0
  0
POINT
  5
3C0
330
3AD
100
AcDbEntity
  8
Defpoints
 62
     0
100
AcDbPoint
 10
196.3200448963624
 20
293.4583328775698
 30
0.0
  0
ENDBLK
  5
3B7
330
3AD
100
AcDbEntity
  8
0
100
AcDbBlockEnd
  0
BLOCK
  5
3CA
330
3C3
100
AcDbEntity
  8
0
100
AcDbBlockBegin
  2
*D6
 70
     1
 10
0.0
 20
0.0
 30
0.0
  3
*D6
  1

  0
LINE
  5
3CD
330
3C3
100
AcDbEntity
  8
0
 62
     0
370
    -2
100
AcDbLine
 10
195.2715296944863
 20
294.5827224639196
 30
0.0
 11
195.0915296944862
 21
294.5827224639196
 31
0.0
  0
LINE
  5
3CE
330
3C3
100
AcDbEntity
  8
0
 62
     0
370
    -2
100
AcDbLine
 10
195.0915296944862
 20
294.5827224639196
 30
0.0
 11
193.9551847471368
 21
295.6227538964574
 31
0.0
  0
MTEXT
  5
3CF
330
3C3
100
AcDbEntity
  8
0
 62
     0
100
AcDbMText
 10
195.9015296944864
 20
294.5827224639196
 30
0.0
 40
0.18
 41
0.0
 71
     5
 72
     1
  1
\A1;R3.3858
 73
     1
 44
1.0
  0
SOLID
  5
3D0
330
3C3
100
AcDbEntity
  8
0
 62
     0
100
AcDbTrace
 10
193.9754393561188
 20
295.6448842108471
 30
0.0
 11
193.9349301381549
 21
295.6006235820678
 31
0.0
 12
193.8224028607987
 22
295.7442815503494
 32
0.0
 13
193.8224028607987
 23
295.7442815503494
 33
0.0
  0
POINT
  5
3D1
330
3C3
100
AcDbEntity
  8
Defpoints
 62
     0
100
AcDbPoint
 10
193.8224028607987
 20
295.7442815503494
 30
0.0
  0
POINT
  5
3D2
330
3C3
100
AcDbEntity
  8
Defpoints
 62
     0
100
AcDbPoint
 10
196.3200448963623
 20
293.4583328775691
 30
0.0
  0
ENDBLK
  5
3CB
330
3C3
100
AcDbEntity
  8
0
100
AcDbBlockEnd
  0
BLOCK
  5
3DD
330
3D9
100
AcDbEntity
  8
0
100
AcDbBlockBegin
  2
*U7
 70
     1
 10
0.0
 20
0.0
 30
0.0
  3
*U7
  1

  0
TEXT
  5
3DA
330
3D9
100
AcDbEntity
  8
0
100
AcDbText
 10
1.9327459004445
 20
-2.486795878345354
 30
0.0
 40
0.5
  1
NOTE: CHECK ALL DXF FILES BEFORE USING.
100
AcDbText
  0
TEXT
  5
3DB
330
3D9
100
AcDbEntity
  8
0
100
AcDbText
 10
1.9327459004445
 20
-3.320129211678687
 30
0.0
 40
0.5
  1
DOMAIN INDUSTRIES DOES NOT WARRANT AND
100
AcDbText
  0
TEXT
  5
3DC
330
3D9
100
AcDbEntity
  8
0
100
AcDbText
 10
1.9327459004445
 20
-4.153462545012019
 30
0.0
 40
0.5
  1
IS NOT LIABLE FOR ACCURACY OF DRAWING.
100
AcDbText
  0
ENDBLK
  5
3DE
330
3D9
100
AcDbEntity
  8
0
100
AcDbBlockEnd
  0
ENDSEC
  0
SECTION
  2
ENTITIES
  0
LINE
  5
2E7
330
23
100
AcDbEntity
  8
\M+5D0E9\M+5CFDF
100
AcDbLine
 10
204.430264896363
 20
293.4583328775694
 30
0.0
 11
204.430264896363
 21
287.1591328775695
 31
0.0
  0
LINE
  5
2E8
330
23
100
AcDbEntity
  8
0
100
AcDbLine
 10
204.7058548963623
 20
293.4583328775694
 30
0.0
 11
204.7058548963623
 21
287.1591328775695
 31
0.0
  0
ARC
  5
2E9
102
{ACAD_REACTORS
330
345
330
37D
102
}
330
23
100
AcDbEntity
  8
\M+5D0E9\M+5CFDF
100
AcDbCircle
 10
201.0444448963617
 20
287.1591328775695
 30
0.0
 40
3.38582
100
AcDbArc
 50
270.0
 51
0.0
  0
ARC
  5
2EA
102
{ACAD_REACTORS
330
32B
330
397
102
}
330
23
100
AcDbEntity
  8
0
100
AcDbCircle
 10
201.0444448963617
 20
287.1591328775695
 30
0.0
 40
3.66141
100
AcDbArc
 50
270.0
 51
0.0
  0
LINE
  5
2EB
330
23
100
AcDbEntity
  8
\M+5D0E9\M+5CFDF
100
AcDbLine
 10
201.0444448963617
 20
283.7733128775695
 30
0.0
 11
196.3200448963625
 21
283.7733128775695
 31
0.0
  0
LINE
  5
2EC
330
23
100
AcDbEntity
  8
0
100
AcDbLine
 10
201.0444448963617
 20
283.4977228775695
 30
0.0
 11
196.3200448963625
 21
283.4977228775695
 31
0.0
  0
ARC
  5
2ED
330
23
100
AcDbEntity
  8
\M+5D0E9\M+5CFDF
100
AcDbCircle
 10
196.3200448963625
 20
287.1591328775695
 30
0.0
 40
3.38582
100
AcDbArc
 50
180.0
 51
270.0
  0
ARC
  5
2EE
102
{ACAD_REACTORS
330
32B
102
}
330
23
100
AcDbEntity
  8
0
100
AcDbCircle
 10
196.3200448963625
 20
287.1591328775695
 30
0.0
 40
3.66141
100
AcDbArc
 50
180.0
 51
270.0
  0
LINE
  5
2EF
102
{ACAD_REACTORS
330
345
102
}
330
23
100
AcDbEntity
  8
\M+5D0E9\M+5CFDF
100
AcDbLine
 10
192.934224896363
 20
287.1591328775695
 30
0.0
 11
192.934224896363
 21
293.4583328775694
 31
0.0
  0
LINE
  5
2F0
330
23
100
AcDbEntity
  8
0
100
AcDbLine
 10
192.6586348963619
 20
287.1591328775695
 30
0.0
 11
192.6586348963619
 21
293.4583328775694
 31
0.0
  0
ARC
  5
2F1
102
{ACAD_REACTORS
330
3D3
102
}
330
23
100
AcDbEntity
  8
\M+5D0E9\M+5CFDF
100
AcDbCircle
 10
196.3200448963625
 20
293.4583328775694
 30
0.0
 40
3.38582
100
AcDbArc
 50
90.0
 51
180.0
  0
ARC
  5
2F2
102
{ACAD_REACTORS
330
3C1
102
}
330
23
100
AcDbEntity
  8
0
100
AcDbCircle
 10
196.3200448963625
 20
293.4583328775694
 30
0.0
 40
3.66141
100
AcDbArc
 50
90.0
 51
180.0
  0
LINE
  5
2F3
102
{ACAD_REACTORS
330
37D
102
}
330
23
100
AcDbEntity
  8
\M+5D0E9\M+5CFDF
100
AcDbLine
 10
196.3200448963625
 20
296.8441528775695
 30
0.0
 11
201.0444448963617
 21
296.8441528775695
 31
0.0
  0
LINE
  5
2F4
330
23
100
AcDbEntity
  8
0
100
AcDbLine
 10
196.3200448963625
 20
297.1197428775695
 30
0.0
 11
201.0444448963617
 21
297.1197428775695
 31
0.0
  0
ARC
  5
2F5
330
23
100
AcDbEntity
  8
\M+5D0E9\M+5CFDF
100
AcDbCircle
 10
201.0444448963617
 20
293.4583328775694
 30
0.0
 40
3.38582
100
AcDbArc
 50
0.0
 51
90.0
  0
ARC
  5
2F6
102
{ACAD_REACTORS
330
397
102
}
330
23
100
AcDbEntity
  8
0
100
AcDbCircle
 10
201.0444448963617
 20
293.4583328775694
 30
0.0
 40
3.66141
100
AcDbArc
 50
0.0
 51
90.0
  0
DIMENSION
  5
312
102
{ACAD_XDICTIONARY
360
320
102
}
102
{ACAD_REACTORS
330
32B
102
}
330
23
100
AcDbEntity
  8
0
100
AcDbDimension
  2
*D1
 10
204.7058548963617
 20
281.3222678019755
 30
0.0
 11
198.6822448963621
 21
281.3222678019755
 31
0.0
 70
   160
 71
     5
 42
12.04721999999913
  3
Standard
100
AcDbAlignedDimension
 13
192.6586348963625
 23
287.1591328775695
 33
0.0
 14
204.7058548963617
 24
287.1591328775695
 34
0.0
100
AcDbRotatedDimension
  0
DIMENSION
  5
32C
102
{ACAD_XDICTIONARY
360
33A
102
}
102
{ACAD_REACTORS
330
345
102
}
330
23
100
AcDbEntity
  8
0
100
AcDbDimension
  2
*D2
 10
204.4302648963617
 20
282.4664220483361
 30
0.0
 11
198.6822448963623
 21
282.4664220483361
 31
0.0
 70
   160
 71
     5
 42
11.49603999999865
  3
Standard
100
AcDbAlignedDimension
 13
192.934224896363
 23
287.1591328775695
 33
0.0
 14
204.4302648963617
 24
287.1591328775695
 34
0.0
100
AcDbRotatedDimension
  0
DIMENSION
  5
364
102
{ACAD_XDICTIONARY
360
372
102
}
102
{ACAD_REACTORS
330
37D
102
}
330
23
100
AcDbEntity
  8
0
100
AcDbDimension
  2
*D3
 10
206.8040809857887
 20
283.7733128775695
 30
0.0
 11
206.8040809857886
 21
290.6073841483983
 31
0.0
 70
   160
 71
     5
 42
13.07084000000003
  3
Standard
100
AcDbAlignedDimension
 13
201.0444448963617
 23
296.8441528775695
 33
0.0
 14
201.0444448963617
 24
283.7733128775695
 34
0.0
 50
90.0
100
AcDbRotatedDimension
  0
DIMENSION
  5
37E
102
{ACAD_XDICTIONARY
360
38C
102
}
102
{ACAD_REACTORS
330
397
102
}
330
23
100
AcDbEntity
  8
0
100
AcDbDimension
  2
*D4
 10
209.3873003747854
 20
283.4977228775695
 30
0.0
 11
209.3873003747854
 21
290.6073841483983
 31
0.0
 70
   160
 71
     5
 42
13.62201999999996
  3
Standard
100
AcDbAlignedDimension
 13
201.0444448963617
 23
297.1197428775695
 33
0.0
 14
201.0444448963617
 24
283.4977228775695
 34
0.0
 50
90.0
100
AcDbRotatedDimension
  0
DIMENSION
  5
3AC
102
{ACAD_XDICTIONARY
360
3B8
102
}
102
{ACAD_REACTORS
330
3C1
102
}
330
23
100
AcDbEntity
  8
0
100
AcDbDimension
  2
*D5
 10
196.3200448963624
 20
293.4583328775698
 30
0.0
 11
190.4660552912635
 21
297.1057293129066
 31
0.0
 70
   164
 71
     5
 42
3.661409999999705
  3
Standard
100
AcDbRadialDimension
 15
193.3470532145931
 25
295.5954439294874
 35
0.0
 40
0.0
1001
ACAD
1000
DSTYLE
1002
{
1070
   288
1070
     1
1002
}
  0
DIMENSION
  5
3C2
102
{ACAD_XDICTIONARY
360
3CC
102
}
102
{ACAD_REACTORS
330
3D3
102
}
330
23
100
AcDbEntity
  8
0
100
AcDbDimension
  2
*D6
 10
196.3200448963623
 20
293.4583328775691
 30
0.0
 11
195.9015296944864
 21
294.5827224639196
 31
0.0
 70
   164
 71
     5
 42
3.385820000000023
  3
Standard
100
AcDbRadialDimension
 15
193.8224028607987
 25
295.7442815503494
 35
0.0
 40
0.0
1001
ACAD
1000
DSTYLE
1002
{
1070
   288
1070
     1
1002
}
  0
INSERT
  5
3E5
330
23
100
AcDbEntity
  8
0
100
AcDbBlockReference
  2
*U7
 10
188.7381286328304
 20
282.7141904861807
 30
0.0
  0
TEXT
  5
3E6
330
23
100
AcDbEntity
  8
0
 62
     5
100
AcDbText
 10
190.6002505113672
 20
277.0930195472922
 30
0.0
 40
0.5
  1
(C)2009 DOMAIN INDUSTRIES, INC.
100
AcDbText
  0
TEXT
  5
3EC
330
23
100
AcDbEntity
  8
0
100
AcDbText
 10
195.8412033728555
 20
289.8933328099922
 30
0.0
 40
1.0
  1
OM-1413
100
AcDbText
  0
ENDSEC
  0
SECTION
  2
OBJECTS
  0
DICTIONARY
  5
C
330
0
100
AcDbDictionary
281
     1
  3
ACAD_COLOR
350
1C
  3
ACAD_GROUP
350
D
  3
ACAD_LAYOUT
350
1A
  3
ACAD_MATERIAL
350
1B
  3
ACAD_MLINESTYLE
350
17
  3
ACAD_PLOTSETTINGS
350
19
  3
ACAD_PLOTSTYLENAME
350
E
  3
ACAD_TABLESTYLE
350
1D
  3
AcDbVariableDictionary
350
206
  0
DICTIONARY
  5
320
330
312
100
AcDbDictionary
280
     1
281
     1
  3
ACAD_DIMASSOC
360
32B
  0
DICTIONARY
  5
33A
330
32C
100
AcDbDictionary
280
     1
281
     1
  3
ACAD_DIMASSOC
360
345
  0
DICTIONARY
  5
372
330
364
100
AcDbDictionary
280
     1
281
     1
  3
ACAD_DIMASSOC
360
37D
  0
DICTIONARY
  5
38C
330
37E
100
AcDbDictionary
280
     1
281
     1
  3
ACAD_DIMASSOC
360
397
  0
DICTIONARY
  5
3B8
330
3AC
100
AcDbDictionary
280
     1
281
     1
  3
ACAD_DIMASSOC
360
3C1
  0
DICTIONARY
  5
3CC
330
3C2
100
AcDbDictionary
280
     1
281
     1
  3
ACAD_DIMASSOC
360
3D3
  0
DICTIONARY
  5
1C
102
{ACAD_REACTORS
330
C
102
}
330
C
100
AcDbDictionary
281
     1
  0
DICTIONARY
  5
D
102
{ACAD_REACTORS
330
C
102
}
330
C
100
AcDbDictionary
281
     1
  0
DICTIONARY
  5
1A
102
{ACAD_REACTORS
330
C
102
}
330
C
100
AcDbDictionary
281
     1
  3
\M+5B2BC\M+5BED61
350
22
  3
\M+5B2BC\M+5BED62
350
2A
  3
Model
350
26
  0
DICTIONARY
  5
1B
102
{ACAD_REACTORS
330
C
102
}
330
C
100
AcDbDictionary
281
     1
  0
DICTIONARY
  5
17
102
{ACAD_REACTORS
330
C
102
}
330
C
100
AcDbDictionary
281
     1
  3
Standard
350
18
  0
DICTIONARY
  5
19
102
{ACAD_REACTORS
330
C
102
}
330
C
100
AcDbDictionary
281
     1
  0
ACDBDICTIONARYWDFLT
  5
E
102
{ACAD_REACTORS
330
C
102
}
330
C
100
AcDbDictionary
281
     1
  3
Normal
350
F
100
AcDbDictionaryWithDefault
340
F
  0
DICTIONARY
  5
1D
102
{ACAD_REACTORS
330
C
102
}
330
C
100
AcDbDictionary
281
     1
  3
Standard
350
1E
  0
DICTIONARY
  5
206
102
{ACAD_REACTORS
330
C
102
}
330
C
100
AcDbDictionary
281
     1
  3
CTABLESTYLE
350
207
  3
DIMASSOC
350
209
  3
HIDETEXT
350
208
  3
PROJECTNAME
350
20A
  0
DIMASSOC
  5
32B
102
{ACAD_REACTORS
330
320
102
}
330
320
100
AcDbDimAssoc
330
312
 90
        3
 70
     0
 71
     0
  1
AcDbOsnapPointRef
 72
    13
331
2EE
 73
     2
 91
        0
 40
3.141592653589793
 10
192.6586348963625
 20
287.1591328775695
 30
0.0
 75
     0
  1
AcDbOsnapPointRef
 72
     1
331
2EA
 73
     2
 91
        0
 40
6.283185307179586
 10
204.7058548963617
 20
287.1591328775695
 30
0.0
 75
     0
  0
DIMASSOC
  5
345
102
{ACAD_REACTORS
330
33A
102
}
330
33A
100
AcDbDimAssoc
330
32C
 90
        3
 70
     0
 71
     0
  1
AcDbOsnapPointRef
 72
    13
331
2EF
 73
     2
 91
        0
 40
0.0
 10
192.934224896363
 20
287.1591328775695
 30
0.0
 75
     0
  1
AcDbOsnapPointRef
 72
     1
331
2E9
 73
     2
 91
        0
 40
6.283185307179586
 10
204.4302648963617
 20
287.1591328775695
 30
0.0
 75
     0
  0
DIMASSOC
  5
37D
102
{ACAD_REACTORS
330
372
102
}
330
372
100
AcDbDimAssoc
330
364
 90
        3
 70
     0
 71
     0
  1
AcDbOsnapPointRef
 72
     1
331
2F3
 73
     2
 91
        0
 40
1.0
 10
201.0444448963617
 20
296.8441528775695
 30
0.0
 75
     0
  1
AcDbOsnapPointRef
 72
    13
331
2E9
 73
     2
 91
        0
 40
4.712388980384689
 10
201.0444448963617
 20
283.7733128775695
 30
0.0
 75
     0
  0
DIMASSOC
  5
397
102
{ACAD_REACTORS
330
38C
102
}
330
38C
100
AcDbDimAssoc
330
37E
 90
        3
 70
     0
 71
     0
  1
AcDbOsnapPointRef
 72
     1
331
2F6
 73
     2
 91
        0
 40
1.570796326794896
 10
201.0444448963617
 20
297.1197428775695
 30
0.0
 75
     0
  1
AcDbOsnapPointRef
 72
    13
331
2EA
 73
     2
 91
        0
 40
4.712388980384689
 10
201.0444448963617
 20
283.4977228775695
 30
0.0
 75
     0
  0
DIMASSOC
  5
3C1
102
{ACAD_REACTORS
330
3B8
102
}
330
3B8
100
AcDbDimAssoc
330
3AC
 90
        2
 70
     0
 71
     0
  1
AcDbOsnapPointRef
 72
     3
331
2F2
 73
     2
 91
        0
 40
0.0
 10
0.0
 20
0.0
 30
0.0
 75
     0
  0
DIMASSOC
  5
3D3
102
{ACAD_REACTORS
330
3CC
102
}
330
3CC
100
AcDbDimAssoc
330
3C2
 90
        2
 70
     0
 71
     0
  1
AcDbOsnapPointRef
 72
     3
331
2F1
 73
     2
 91
        0
 40
0.0
 10
0.0
 20
0.0
 30
0.0
 75
     0
  0
LAYOUT
  5
22
102
{ACAD_XDICTIONARY
360
23D
102
}
102
{ACAD_REACTORS
330
1A
102
}
330
1A
100
AcDbPlotSettings
  1

  2
\M+5D4DA wen \M+5C9CF\M+5D7D4\M+5B6AF FX DocuPrint 255-AP
  4

  6

 40
0.0
 41
0.0
 42
0.0
 43
0.0
 44
0.0
 45
0.0
 46
0.0
 47
0.0
 48
0.0
 49
0.0
140
0.0
141
0.0
142
1.0
143
1.0
 70
   688
 72
     0
 73
     0
 74
     5
  7
monochrome.ctb
 75
    16
147
1.0
148
0.0
149
0.0
100
AcDbLayout
  1
\M+5B2BC\M+5BED61
 70
     1
 71
     1
 10
0.0
 20
0.0
 11
12.0
 21
9.0
 12
0.0
 22
0.0
 32
0.0
 14
1.000000000000000E+20
 24
1.000000000000000E+20
 34
1.000000000000000E+20
 15
-1.000000000000000E+20
 25
-1.000000000000000E+20
 35
-1.000000000000000E+20
146
0.0
 13
0.0
 23
0.0
 33
0.0
 16
1.0
 26
0.0
 36
0.0
 17
0.0
 27
1.0
 37
0.0
 76
     0
330
1F
  0
LAYOUT
  5
2A
102
{ACAD_XDICTIONARY
360
241
102
}
102
{ACAD_REACTORS
330
1A
102
}
330
1A
100
AcDbPlotSettings
  1

  2
\M+5D4DA wen \M+5C9CF\M+5D7D4\M+5B6AF FX DocuPrint 255-AP
  4

  6

 40
0.0
 41
0.0
 42
0.0
 43
0.0
 44
0.0
 45
0.0
 46
0.0
 47
0.0
 48
0.0
 49
0.0
140
0.0
141
0.0
142
1.0
143
1.0
 70
   688
 72
     0
 73
     0
 74
     5
  7
monochrome.ctb
 75
    16
147
1.0
148
0.0
149
0.0
100
AcDbLayout
  1
\M+5B2BC\M+5BED62
 70
     1
 71
     2
 10
0.0
 20
0.0
 11
12.0
 21
9.0
 12
0.0
 22
0.0
 32
0.0
 14
0.0
 24
0.0
 34
0.0
 15
0.0
 25
0.0
 35
0.0
146
0.0
 13
0.0
 23
0.0
 33
0.0
 16
1.0
 26
0.0
 36
0.0
 17
0.0
 27
1.0
 37
0.0
 76
     0
330
27
  0
LAYOUT
  5
26
102
{ACAD_XDICTIONARY
360
23F
102
}
102
{ACAD_REACTORS
330
1A
102
}
330
1A
100
AcDbPlotSettings
  1

  2
HP CLJ 3600
  4
Letter
  6

 40
5.027083396911621
 41
5.027085304260253
 42
5.027084350585937
 43
5.027069091796875
 44
215.8999938964843
 45
279.3999938964843
 46
0.0
 47
12.19199999999999
 48
0.0
 49
0.0
140
0.0
141
0.0
142
1.0
143
2.066995007958816
 70
 11956
 72
     0
 73
     1
 74
     1
  7
monochrome.ctb
 75
     0
147
0.4837941050411692
148
-4824.819996585772
149
-7140.723733894891
100
AcDbLayout
  1
Model
 70
     1
 71
     0
 10
0.0
 20
0.0
 11
12.0
 21
9.0
 12
0.0
 22
0.0
 32
0.0
 14
0.0
 24
0.0
 34
0.0
 15
0.0
 25
0.0
 35
0.0
146
0.0
 13
0.0
 23
0.0
 33
0.0
 16
1.0
 26
0.0
 36
0.0
 17
0.0
 27
1.0
 37
0.0
 76
     0
330
23
  0
MLINESTYLE
  5
18
102
{ACAD_REACTORS
330
17
102
}
330
17
100
AcDbMlineStyle
  2
STANDARD
 70
     0
  3

 62
   256
 51
90.0
 52
90.0
 71
     2
 49
0.5
 62
   256
  6
BYLAYER
 49
-0.5
 62
   256
  6
BYLAYER
  0
ACDBPLACEHOLDER
  5
F
102
{ACAD_REACTORS
330
E
102
}
330
E
  0
TABLESTYLE
  5
1E
102
{ACAD_REACTORS
330
1D
102
}
330
1D
100
AcDbTableStyle
  3
Standard
 70
     0
 71
     0
 40
0.06
 41
0.06
280
     0
281
     0
  7
Standard
140
0.18
170
     2
 62
     0
 63
     7
283
     0
274
    -2
284
     1
 64
     0
275
    -2
285
     1
 65
     0
276
    -2
286
     1
 66
     0
277
    -2
287
     1
 67
     0
278
    -2
288
     1
 68
     0
279
    -2
289
     1
 69
     0
  7
Standard
140
0.25
170
     5
 62
     0
 63
     7
283
     0
274
    -2
284
     1
 64
     0
275
    -2
285
     1
 65
     0
276
    -2
286
     1
 66
     0
277
    -2
287
     1
 67
     0
278
    -2
288
     1
 68
     0
279
    -2
289
     1
 69
     0
  7
Standard
140
0.18
170
     5
 62
     0
 63
     7
283
     0
274
    -2
284
     1
 64
     0
275
    -2
285
     1
 65
     0
276
    -2
286
     1
 66
     0
277
    -2
287
     1
 67
     0
278
    -2
288
     1
 68
     0
279
    -2
289
     1
 69
     0
  0
DICTIONARYVAR
  5
207
102
{ACAD_REACTORS
330
206
102
}
330
206
100
DictionaryVariables
280
     0
  1
STANDARD
  0
DICTIONARYVAR
  5
209
102
{ACAD_REACTORS
330
206
102
}
330
206
100
DictionaryVariables
280
     0
  1
2
  0
DICTIONARYVAR
  5
208
102
{ACAD_REACTORS
330
206
102
}
330
206
100
DictionaryVariables
280
     0
  1
1
  0
DICTIONARYVAR
  5
20A
102
{ACAD_REACTORS
330
206
102
}
330
206
100
DictionaryVariables
280
     0
  1

  0
DICTIONARY
  5
23D
330
22
100
AcDbDictionary
280
     1
281
     1
  3
ACAD_XREC_ROUNDTRIP
360
23E
  0
DICTIONARY
  5
241
330
2A
100
AcDbDictionary
280
     1
281
     1
  3
ACAD_XREC_ROUNDTRIP
360
242
  0
DICTIONARY
  5
23F
330
26
100
AcDbDictionary
280
     1
281
     1
  3
ACAD_XREC_ROUNDTRIP
360
240
  0
XRECORD
  5
23E
102
{ACAD_REACTORS
330
23D
102
}
330
23D
100
AcDbXrecord
280
     1
102
SHADEPLOT
 70
     0
102
SHADEPLOTRESLEVEL
 70
     2
102
SHADEPLOTCUSTOMDPI
 70
   300
  0
XRECORD
  5
242
102
{ACAD_REACTORS
330
241
102
}
330
241
100
AcDbXrecord
280
     1
102
SHADEPLOT
 70
     0
102
SHADEPLOTRESLEVEL
 70
     2
102
SHADEPLOTCUSTOMDPI
 70
   300
  0
XRECORD
  5
240
102
{ACAD_REACTORS
330
23F
102
}
330
23F
100
AcDbXrecord
280
     1
102
SHADEPLOT
 70
     0
102
SHADEPLOTRESLEVEL
 70
     2
102
SHADEPLOTCUSTOMDPI
 70
   300
  0
ENDSEC
  0
EOF
